Quick Browse
Movies
TV shows
Music
Games
Applications
Anime
Other
Facebook
Advertising

Friends
Torrent Download
Movie4u
1337x.to
Torrent Downloads




Verified torrent The Wrath Of Cain [DVD5] [ENG] [AC3] [Hannspree]


    Seeders : 0      Leechers : 0
Hash :31CDCDD4EB9C66BDED4BE00900918EE887DE2039
Added :1 Year+ by HannspreeVerified torrent uploader in Movies
Size :1.16 GB
Stream :WATCH ONLINE @ Movie4u


The Wrath Of Cain [DVD5] [ENG] [AC3] [Hannspree]
Free and Fast Download with Usenet 300GB+ free







Trackers List

Tracker NameLast CheckStatusSeedersLeechers




Torrent File Content (14 files)


The Wrath Of Cain
    VIDEO_TS
          VIDEO_TS.BUP -
12 KB

          VIDEO_TS.IFO -
12 KB

          VIDEO_TS.VOB -
58 KB

          VTS_01_0.BUP -
62 KB

          VTS_01_0.IFO -
62 KB

          VTS_01_0.VOB -
58 KB

          VTS_01_1.VOB -
1023.97 MB

          VTS_01_2.VOB -
158.58 MB

    The Wrath Of Cain [Images]
          The Wrath Of Cain [Cover].jpg -
55.17 KB

          The Wrath Of Cain [Disc].jpg -
25.01 KB

          The Wrath Of Cain [Screens1].jpg -
128.49 KB

          The Wrath Of Cain [Screens2].jpg -
115.61 KB

     The Wrath Of Cain.NFO -
3.96 KB

     Torrent downloaded from Demonoid.com.txt -
47 bytes



Description



=====================================================================================
[ Another free, high quality, ready to burn DVD I will be adding new torrents on a daily basis - Remember to seed ]
=====================================================================================
MOVIE TITLE: The Wrath Of Cain
LANGUAGE: English
MOVIE SUBS: No
BURN TESTED: Yes
FORMAT: Pal
GENRE: Action
RUNTIME: 84 Minutes
YEAR: 2010
IMDB LINK: http://www.imdb.com/title/tt1465519/
=====================================================================================
MOVIE DESC:

A former kingpin of the streets, Miles "Cain" Skinner is doing life in prison. He is feared and respected among the inmates. When Cain learns that his sentence will be shortened only by brain cancer, his urgency to change his ways goes into overdrive. His only desire is to save his two feuding sons, also inmates, from each other. Warden Dean is the only man that can help Cain with the redemption he seeks, but it comes with a price.
=====================================================================================
MOVIE SPECS:

GENERAL:
Complete name : The Wrath Of Cain [DVD5]
Format : MPEG-PS
File size : 1.15 GB
Duration : 1h 13mn
Overall bit rate : 1 949 Kbps

VIDEO:
ID : 224 (0xE0)
Format : MPEG Video
Format version : Version 2
Format profile : [email protected]
Format settings, BVOP : Yes
Format settings, Matrix : Default
Duration : 1h 13mn
Bit rate mode : Variable
Bit rate : 1 718 Kbps
Nominal bit rate : 9 608 Kbps
Width : 720 pixels
Height : 576 pixels
Display aspect ratio : 16:9
Frame rate : 24.000 fps
Standard : PAL
Color space : YUV
Chroma subsampling : 4:2:0
Bit depth : 8 bits
Scan type : Progressive
Scan order : 2:2:2:2:2:2:2:2:2:2:2:3 Pulldown
Bits/(Pixel*Frame) : 0.173
Stream size : 903 MiB (88%)

AUDIO:
ID : 128 (0x80)
Format : AC-3
Format/Info : Audio Coding 3
Mode extension : CM (complete main)
Duration : 1h 13mn
Bit rate mode : Constant
Bit rate : 192 Kbps
Channel(s) : 2 channels
Channel positions : Front: L R
Sampling rate : 48.0 KHz
Stream size : 101 MiB (10%)
=====================================================================================
TRACKER:
http://tracker.torrentbox.com:2710/announce
http://denis.stalker.h3q.com/announce
http://exodus.1337x.org/announce
http://tracker.ilibr.org/announce
http://tpb.tracker.prq.to/announce
http://red.tracker.prq.to/announce
http://tracker.openbittorrent.com/announce
=====================================================================================
[FOOT NOTE]
If you are happy with this download, it would be nice to hear your views or comments that you might have. Enjoy
=====================================================================================
Screen Shot Of The Wrath Of Cain
=====================================================================================
http://leetpic.com/images/thewrarjr.jpg

=====================================================================================
http://leetpic.com/images/thewravdv.jpg

=====================================================================================
http://torrent-stats.info/e009/c938555e.png

=====================================================================================

Related torrents

Torrent NameAddedSizeSeedLeechHealth
Verified torrent
1 Year+ - in Movies1.02 GB32
Verified torrent
1 Year+ - in Movies869.42 MB55
Verified torrent
1 Year+ - in Movies3.39 GB15
1 Year+ - in Movies2.68 GB00
Verified torrent
1 Year+ - in Movies2.94 GB1434

Comments (0 Comments)




Please login or create a FREE account to post comments

Latest Searches

| Lil Wayne I V | SEASON 3 THE CLEVELAND SHOW | auslogics registry portable | Missy Emilie | Alien 1080p Bluray x265 | maejor trouble | mira alice | anya kimmy x265 | steeldrivers album | maya nparticles |