Quick Browse
Movies
TV shows
Music
Games
Applications
Anime
Other
Facebook
Advertising

Friends
Torrent Download
Movie4u
1337x.to
Torrent Downloads




Verified torrent The Wronged Man [DVD] [ENG] [AC3] [Hannspree]


    Seeders : 2      Leechers : 29
Hash :8EB8C64E07243498F83085D1DC345FFF07A3E173
Added :1 Year+ by HannspreeVerified torrent uploader in Movies
Size :1.55 GB
Stream :WATCH ONLINE @ Movie4u


The Wronged Man [DVD] [ENG] [AC3] [Hannspree]
Free and Fast Download with Usenet 300GB+ free







Trackers List

Tracker NameLast CheckStatusSeedersLeechers




Torrent File Content (19 files)


The Wronged Man
    The Wronged Man [DVD]
          VIDEO_TS/VIDEO_TS.BUP -
12 KB

          VIDEO_TS/VIDEO_TS.IFO -
12 KB

          VIDEO_TS/VIDEO_TS.VOB -
58 KB

          VIDEO_TS/VTS_01_0.BUP -
64 KB

          VIDEO_TS/VTS_01_0.IFO -
64 KB

          VIDEO_TS/VTS_01_0.VOB -
58 KB

          VIDEO_TS/VTS_01_1.VOB -
1023.97 MB

          VIDEO_TS/VTS_01_2.VOB -
562.99 MB

    The Wronged Man [Images]
          The Wronged Man [Cover].jpg -
3.39 MB

          The Wronged Man [Disc].jpg -
23.46 KB

          The Wronged Man [Screens].jpg -
129.51 KB

     The Wronged Man.NFO -
3.97 KB

     Torrent downloaded from Ahashare.com.txt -
47 bytes

     Torrent downloaded from Demonoid.com.txt -
47 bytes

     Torrent downloaded from Genesis-sp.org.txt -
49 bytes

     Torrent downloaded from H33t.org.txt -
43 bytes

     Torrent downloaded from Limetorrents.com.txt -
51 bytes

     Torrent downloaded from TorrentBucket.org.txt -
52 bytes

     Torrent downloaded from Torrentsnet.com.txt -
48 bytes



Description



=====================================================================================
[ Another free, high quality, ready to burn DVD I will be adding new torrents on a daily basis - Remember to seed ]
=====================================================================================
MOVIE TITLE: The Wronged Man
LANGUAGE: English
MOVIE SUBS: No
BURN TESTED: Yes
FORMAT: Pal
GENRE: Biography | Drama
RUNTIME: 89 Minutes
YEAR: 2010
IMDB LINK: http://www.imdb.com/title/tt1390543/
=====================================================================================
MOVIE DESC:

Janet Gregory, a single mother with a haunting past, is a paralegal struggling to overcome doubts about Calvin Willis, an African-American husband and father wrongfully accused of raping a neighborhood girl. Eventually convinced of his innocence, Janet takes Calvin's pro bono case and wages a dramatic and stormy 22-year battle with the justice system that ultimately redeems an unjustly accused man and cements a life-long friendship.
=====================================================================================
MOVIE SPECS:

GENERAL:
Complete name : The Wronged Man
Format : MPEG-PS
File size : 1.55 GB
Duration : 89 Minutes
Overall bit rate : 2 533 Kbps

VIDEO:
ID : 224 (0xE0)
Format : MPEG Video
Format version : Version 2
Format profile : [email protected]
Format settings, BVOP : Yes
Format settings, Matrix : Default
Duration : 89 Minutes
Bit rate mode : Variable
Bit rate : 2 290 Kbps
Nominal bit rate : 9 608 Kbps
Width : 720 pixels
Height : 576 pixels
Display aspect ratio : 16:9
Frame rate : 24.000 fps
Standard : PAL
Color space : YUV
Chroma subsampling : 4:2:0
Bit depth : 8 bits
Scan type : Progressive
Scan order : 2:2:2:2:2:2:2:2:2:2:2:3 Pulldown
Bits/(Pixel*Frame) : 0.230
Stream size : 926 MiB (90%)

AUDIO:
ID : 128 (0x80)
Format : AC-3
Format/Info : Audio Coding 3
Mode extension : CM (complete main)
Duration : 89 Minutes
Bit rate mode : Constant
Bit rate : 192 Kbps
Channel(s) : 2 channels
Channel positions : Front: L R
Sampling rate : 48.0 KHz
Stream size : 77.6 MiB (8%)
=====================================================================================
TRACKERS:
http://inferno.demonoid.com:3401/announce
http://www.genesis-sp.org:2710/announce
http://tracker.torrentbox.com:2710/announce
http://denis.stalker.h3q.com:6969/announce
http://nemesis.1337x.org/announce
http://exodus.1337x.org/announce
http://tracker.publicbt.com/announce
http://10.rarbg.com/announce
http://tracker.ilibr.org:6969/announce
http://rt.beeretracker.net/announce.php
http://torrentbucket.org/announce
=====================================================================================
[FOOT NOTE]
If you are happy with this download, it would be nice to hear your views or comments that you might have. Enjoy
[NEW TORRENT SITE OPENED]
Check out http://torrentbucket.org/ The staff and members are extremely friendly and a relaxed enviroment, plus
there tracker reports live stats' (up-to-the-minute) on your uploaded torrents, your ratio could go through the
roof in no time, well worth joining, check them out!!
=====================================================================================
Screens Shots Of - The Wronged Man

http://leetpic.com/images/thewronged.jpg

=====================================================================================

Related torrents

Torrent NameAddedSizeSeedLeechHealth
Verified torrent
1 Year+ - in Movies1.34 GB56
1 Good
Verified torrent
1 Year+ - in Movies1.63 GB239
Verified torrent
1 Year+ - in Movies1.22 GB01
Verified torrent
1 Year+ - in Movies2.74 GB16
Verified torrent
1 Year+ - in Movies1.53 GB62

Comments (0 Comments)




Please login or create a FREE account to post comments

Latest Searches

| space in between | q volume | rainy days of madras album 2015 tamil audio songs ost mp3 320kbps tamilrockers | The jazz noir orchestra | Comics Group | American MILF Veronica Avluv no holes barred fuck session | licks you must | i like it when you sleep you are so beautiful | super 71 | Befikre 2016 720p |