Quick Browse
Movies
TV shows
Music
Games
Applications
Anime
Other

Donate and Support

Friends
Torrents.me
Torrent Download
Free Movies
1337x
RARBG
Torrent Downloads

Verified torrent TheLootingOfAmerica@Mastitorrents


    Seeders : 2      Leechers : 0
Hash :0101D66B2425FA5299EB77350F53C482DE172010
Added :1 Year+ by mastitorrentsVerified torrent uploader in TV shows
Size :239.67 MB
Stream :Watch Full Movies Online @ Movie4u
Share :


TheLootingOfAmerica@Mastitorrents
Anonymous and Direct Download 300GB+ free







Warning! Do not Download Torrents Without a VPN!
Your IP Address is .   And Location is
Your Internet Provider and Government can track your torrent Activity!  Hide your IP ADDRESS with a VPN!
We Strongly Recommend Using SpyOFF Torrent VPN to Anonymize your Torrenting. It's FREE For 15 Days!

Note :

Please Update (Trackers Info) Before Downloading Torrents to See Updated Seeders And Leechers for Batter Download Speed.

Trackers List

Tracker NameLast CheckStatusSeedersLeechers




Torrent File Content (1 file)


     TheLootingOfAmerica.avi -
239.67 MB



Description



[color=blue][font=Georgia]Mediainfo:
Video
Format : xvid
Duration : 56mn 21s
Bit rate : 453 Kbps
Width : 640 pixels
Height : 360 pixels
Display aspect ratio : 16:9
Frame rate : 29.970 fps
Bits/(Pixel*Frame) : 0.066
Stream size : 183 MiB (76%)
Audio
Codec ID/Hint : MP3
Bit rate mode : Constant
Bit rate : 128 Kbps
Channel(s) : 2 channels
Sampling rate : 44.1 KHz
Stream size : 51.6 MiB (22%)
Alignment : Aligned on interleaves
A person, who has worked for government for many years, describes in this interview how Corporates are
- looting America
- Using America's military to force the rest of world to use US $ as reserve currency, even though US $ is falling in value.
- Using America's military power to control oil.

The video is also available on youtube in multiple parts. Here the whole interview is present together.
[/font][/color]

http://www.desiupload.com/out.php/i553726_vlcsnap2010110507h39m33s47.png

http://www.desiupload.com/out.php/i553727_vlcsnap2010110507h39m40s120.png

http://www.desiupload.com/out.php/i553728_vlcsnap2010110507h39m46s176.png


Related torrents

Torrent NameAddedSizeSeedLeechHealth
Last Month - in Other16.25 MB00
Last Month - in Other201.33 MB00
Last Month - in Other1.38 GB00
2 months ago - in Other331.23 MB00
2 months ago - in Movies689.98 MB00

Comments (0 Comments)




Please login or create a FREE account to post comments

Latest Searches

| miei piu cari amici | fritz lang spanish | schiave | mom movie 2017 | Steven Universe S03E05 | latest movies download | george jones wild | fluch der karibik | 170818 | Defenders ep3 |