Quick Browse
Movies
TV shows
Music
Games
Applications
Anime
Other
Facebook
Advertising

Friends
Torrent Download
Movie4u
1337x.to
Torrent Downloads




Verified torrent [email protected]


    Seeders : 2      Leechers : 0

Trackers List

Tracker NameLast CheckStatusSeedersLeechers




Torrent File Content (1 file)


     TheLootingOfAmerica.avi -
239.67 MB



Description



[color=blue][font=Georgia]Mediainfo:
Video
Format : xvid
Duration : 56mn 21s
Bit rate : 453 Kbps
Width : 640 pixels
Height : 360 pixels
Display aspect ratio : 16:9
Frame rate : 29.970 fps
Bits/(Pixel*Frame) : 0.066
Stream size : 183 MiB (76%)
Audio
Codec ID/Hint : MP3
Bit rate mode : Constant
Bit rate : 128 Kbps
Channel(s) : 2 channels
Sampling rate : 44.1 KHz
Stream size : 51.6 MiB (22%)
Alignment : Aligned on interleaves
A person, who has worked for government for many years, describes in this interview how Corporates are
- looting America
- Using America's military to force the rest of world to use US $ as reserve currency, even though US $ is falling in value.
- Using America's military power to control oil.

The video is also available on youtube in multiple parts. Here the whole interview is present together.
[/font][/color]

http://www.desiupload.com/out.php/i553726_vlcsnap2010110507h39m33s47.png

http://www.desiupload.com/out.php/i553727_vlcsnap2010110507h39m40s120.png

http://www.desiupload.com/out.php/i553728_vlcsnap2010110507h39m46s176.png


Related torrents

Torrent NameAddedSizeSeedLeechHealth
4 months ago - in Movies732.72 MB00
1 Year+ - in Movies323 MB00
1 Year+ - in Movies831.4 MB339
1 Year+ - in Movies774.07 MB00
1 Year+ - in Movies1.24 GB20

Comments (0 Comments)




Please login or create a FREE account to post comments

Latest Searches

| Baskets fleet | jae cool | MyVeryFirstTime Maddy Rose Maddys First Gangbang | VA Now Thats What I Call Music 71 | baitoey sweet | peggle | black eagle 1987 | Coroner Creek avi | london symphony orchestra classic christmas dolby headphone flac | Clear and Present Danger |