Quick Browse
TV shows

Latest Articles

Torrent Download
Free Movies
Torrent Downloads

Verified torrent [email protected]

    Seeders : 2      Leechers : 0

Hash :0101D66B2425FA5299EB77350F53C482DE172010
Added :1 Year+ by mastitorrentsVerified torrent uploader in TV shows
Size :239.67 MB
Stream :Watch Online Full Movie @ Movie4u
Share :

[email protected]
Download Direct And Anonymously

Warning! Do not Download Torrents Without a VPN!
Your IP Address is .   And Location is
Your Internet Provider and Government can track your torrent Activity!  Hide your IP ADDRESS with a VPN!
We Strongly Recommend Using CyberGhost VPN to Anonymize your Torrenting.

Note :

Please Update (Trackers Info) Before Downloading Torrents to See Updated Seeders And Leechers for Batter Download Speed.

Trackers List

Tracker NameLast CheckStatusSeedersLeechers

Torrent File Content (1 file)

     TheLootingOfAmerica.avi -
239.67 MB


Format : xvid
Duration : 56mn 21s
Bit rate : 453 Kbps
Width : 640 pixels
Height : 360 pixels
Display aspect ratio : 16:9
Frame rate : 29.970 fps
Bits/(Pixel*Frame) : 0.066
Stream size : 183 MiB (76%)
Codec ID/Hint : MP3
Bit rate mode : Constant
Bit rate : 128 Kbps
Channel(s) : 2 channels
Sampling rate : 44.1 KHz
Stream size : 51.6 MiB (22%)
Alignment : Aligned on interleaves
A person, who has worked for government for many years, describes in this interview how Corporates are
- looting America
- Using America's military to force the rest of world to use US $ as reserve currency, even though US $ is falling in value.
- Using America's military power to control oil.

The video is also available on youtube in multiple parts. Here the whole interview is present together.




Related torrents

Torrent NameAddedSizeSeedLeechHealth
1 Year+ - in Movies323 MB00
1 Year+ - in Movies831.4 MB339
1 Year+ - in Movies774.07 MB00
3 months ago - in Other720.57 MB10
4 months ago - in Other6.9 GB01

Note :

Feel free to post any comments about this torrent, including links to Subtitle, samples, screenshots, or any other relevant information. Please Dont Download anything from Comments, And Dont Post Links to Streaming Sites like Fmovies, Xmovies8, 123Movies, GoMovies, CMovieshd, Solarmovie, Watchfree, Putlockers, GoStream, m4ufree etc.

Comments (0 Comments)

Please login or create a FREE account to post comments

Latest Searches

| snow ds product | 14 10 18 annika ripe and ready | same gi | The Walking Dead S02E11 720p HDTV x264 COMPULSiON mkv eztv | creampie old | Carry On Again Doctor 1969 hindi | keiko mp4 | furukawa akemi | number 1 rock | Huyendo conmigo de mi Fito y Fitipaldis |