Quick Browse
Movies
TV shows
Music
Games
Applications
Anime
Other
Facebook
Advertising

Friends
Torrent Download
Movie4u
1337x.to
Torrent Downloads




Verified torrent This Must Be The Place 2011 CAM XviD-26


    Seeders : 1      Leechers : 0
Hash :7D67306E58C8042143C84A4F5CFD284077CFCE68
Added :1 Year+ by memory100Verified torrent uploader in Movies
Size :1.43 GB
Stream :WATCH ONLINE @ Movie4u


This Must Be The Place 2011 CAM XviD-26
Free and Fast Download with Usenet 300GB+ free







Trackers List

Tracker NameLast CheckStatusSeedersLeechers




Torrent File Content (7 files)


This Must Be The Place 2011 CAM XviD-26K
     sample.avi -
38.62 MB

     sceneunderground.org.txt -
77 bytes

     att-networks.com.txt -
39 bytes

     Torrent downloaded from Demonoid.me.txt -
46 bytes

     This Must Be The Place 2011 CAM XviD-26K.avi -
1.39 GB

     This Must Be The Place 2011 CAM XviD-26K.nfo -
3.42 KB

     HDSceneRG.txt -
115 bytes



Description



http://img706.imageshack.us/img706/2650/thismusy.jpg

[code]
This Must Be The Place 2011 CAM XviD-26K

Imdb:
http://www.imdb.com/title/tt1720616/

Plot:
A bored, retired rock star sets out to find his father's executioner, an ex-Nazi war criminal who is a refugee in the U.S.

Sources:
evolution thnxs m8

Notes:
Encoded the video added a few filters to make it look nice :)


Greetz:
Xtreme Encode|FYA|ILLUMANTI|CM8|RX|VISION|HDSCENE|NIGHTMAREZ|xTriLL|DTRG|CRYS|REMIXHD|BIDA
To all the people who have helped me :P you know who you are

Anything to offer email us @: [email protected]

Video
ID : 0
Format : MPEG-4 Visual
Format profile : Advanced [email protected]
Format settings, BVOP : 2
Format settings, QPel : No
Format settings, GMC : No warppoints
Format settings, Matrix : Default (H.263)
Codec ID : XVID
Codec ID/Hint : XviD
Duration : 1h 54mn
Bit rate : 1 500 Kbps
Width : 720 pixels
Height : 304 pixels
Display aspect ratio : 2.35:1
Frame rate : 23.976 fps
Color space : YUV
Chroma subsampling : 4:2:0
Bit depth : 8 bits
Scan type : Progressive
Compression mode : Lossy
Bits/(Pixel*Frame) : 0.286
Stream size : 1.20 GiB (86%)
Writing library : XviD 63

Audio
ID : 1
Format : MPEG Audio
Format version : Version 1
Format profile : Layer 3
Mode : Joint stereo
Mode extension : MS Stereo
Codec ID : 55
Codec ID/Hint : MP3
Duration : 1h 54mn
Bit rate mode : Constant
Bit rate : 224 Kbps
Channel(s) : 2 channels
Sampling rate : 44.1 KHz
Compression mode : Lossy
Stream size : 184 MiB (13%)
Alignment : Split accross interleaves
Interleave, duration : 26 ms (0.63 video frame)
Writing library : LAME3.98

[/code]
Screens:
http://img854.imageshack.us/img854/681/vlcsnap2011122218h51m45.png

http://img840.imageshack.us/img840/1189/vlcsnap2011122218h51m48.png

http://img808.imageshack.us/img808/8688/vlcsnap2011122218h51m53.png

http://img14.imageshack.us/img14/9541/vlcsnap2011122218h52m00.png

http://img836.imageshack.us/img836/5184/vlcsnap2011122218h52m03.png

http://img827.imageshack.us/img827/6644/vlcsnap2011122218h52m07.png

http://img600.imageshack.us/img600/7999/vlcsnap2011122218h52m14.png



http://img851.imageshack.us/img851/5503/26ks.jpg
#
Thank you smallz for banner!

Related torrents

Torrent NameAddedSizeSeedLeechHealth
1 Year+ - in Movies1.39 GB05
1 Year+ - in Movies703.59 MB07
1 Year+ - in Movies413.04 MB13
1 Year+ - in Movies1.43 GB815
1 Year+ - in Movies1.37 GB51

Comments (0 Comments)




Please login or create a FREE account to post comments

Latest Searches

| ass with insatiable blonde | incredible 8 | natasha sweet first | dj escape tony coluccio | email wordpress plugin | quitters inc | corre corre Jesse joy | a letter to home | Vampire Diaries S08E02 avi | The Devil in I Slipknot |