Quick Browse
Movies
TV shows
Music
Games
Applications
Anime
Other
Facebook
Advertising

Friends
Torrent Download
Movie4u
1337x.to
Torrent Downloads




Verified torrent Thor[2011]R5 XviD-ExtraTorrentRG


    Seeders : 76      Leechers : 233
Hash :EDD064A1C669A4895769E442C1FED9820F782910
Added :1 Year+ by robyrsVerified torrent uploader in Movies
Size :1.65 GB
Stream :WATCH ONLINE @ Movie4u


Thor[2011]R5 XviD-ExtraTorrentRG
Free and Fast Download with Usenet 300GB+ free







Trackers List

Tracker NameLast CheckStatusSeedersLeechers




Torrent File Content (12 files)


Thor[2011]R5 XviD-ExtraTorrentRG
     File Copied From Demonoid.me -
171.29 MB

     Hard Subs[Nynorsk] -
163.51 MB

     Image.jpeg -
11.15 KB

     Movie.nfo -
4.74 KB

     Subs[ENG].srt -
143.12 MB

     Subs[FRENCH].srt -
150.91 MB

     Thor[2011]R5 XviD-ExtraTorrentRG.avi -
867.22 MB

     Torrent downloaded from Demonoid.me.txt -
46.69 MB

     Torrent downloaded from Rarbg.txt -
49.61 MB

     Torrent downloaded from TorrentState.txt -
47.67 MB

     Torrents downloaded from Extratorrent.txt -
44.75 MB

     Tracked_by_H33t_com.txt -
2.92 MB



Description



Thor[2011]R5 XviD-ExtraTorrentRG

Format : AVI
Format/Info : Audio Video Interleave
Format profile : OpenDML
Duration : 1h 38mn
Overall bit rate : 2 006 Kbps
Writing application : VirtualDubMod 1.5.10.2 (build 2542/release)
Writing library : VirtualDubMod build 2542/release
Original source form : MAX TORRENTZ



Video
ID : 0
Format : MPEG-4 Visual
Format profile : [email protected]
Format settings, BVOP : Yes
Format settings, QPel : No
Format settings, GMC : No warppoints
Format settings, Matrix : Default (H.263)
Duration : 1h 38mn
Bit rate : 1 552 Kbps
Width : 720 pixels
Height : 304 pixels
Display aspect ratio : 2.35:1
Frame rate : 23.976 fps
Resolution : 24 bits
Colorimetry : 4:2:0
Scan type : Progressive
Bits/(Pixel*Frame) : 0.296
Stream size : 1.07 GiB (87%)


Audio
ID : 1
Format : AC-3
Format/Info : Audio Coding 3
Codec ID : 2000
Duration : 1h 38mn
Bit rate mode : Constant
Bit rate : 448 Kbps
Channel(s) : 6 channels
Channel positions : Front: L C R, Surround: L R, LFE
Sampling rate : 48.0 KHz
Stream size : 316 MiB (22%)
Alignment : Aligned on interleaves
Interleave, duration : 64 ms (1.53 video frames)
Interleave, preload duration : 192 ms

How To Get Your Fullspeed (uTorrent)

Torrent Client - Preferences - Bandwidth - Number of connections - Set aprox. 500 for each
Torrent Client - Preferences - BiTorrent - Protocol Encryption - Forced
Bandwidth Allocation - High (Set download/upload limit - Unlimited)
Stop Other Active Torrents - Start downloading and wait for connections.
Enjoy and Seed for at least 1:1 ratio. Don't forget to say thanks/leave reviews.
Before downloading you should check/google search sample "release name""sample".
Greets to all actual/future p2p/scene QUALITY groups and affiliate websites.
Don't trust IMDb robot or bad ratings,always watch some trailers first.
Ignore stupid comments/fake/mislabeled/no-DVDrips/CAM/TS/RAR uploads.
Please spread this release/torrent to your friends/forums/etc.
If you need translation subs visit some subtitles sites.
Report if you see online streaming or other spam links.
Recommended movie player VLC PLAYER.

Related torrents

Torrent NameAddedSizeSeedLeechHealth
Verified torrent
1 Year+ - in Movies710.46 MB00
1 Year+ - in Movies704.28 MB00
1 Year+ - in Movies704.18 MB00
1 Comments
4 Good
Verified torrent
1 Year+ - in Movies743.35 MB00
1 Year+ - in Movies6.8 GB250

Comments (3 Comments)




nico1989
» Voted Good Voted Good for this torrent for this torrent

Added 1 Year+
got thise one right thanks mate! bravo!!
DTroy
» Voted Good Voted Good for this torrent for this torrent

Added 1 Year+
quality of 9 nuce job!
pretfioly
» Voted Good Voted Good for this torrent for this torrent

Added 1 Year+
tanks for the upload
Please login or create a FREE account to post comments

Latest Searches

| pere noel xxx | amy brooke auction | Pliers flac | what the hell happened to Me | Gorgee | bigg boss2016 | my marry | Vikings S04E12 1080p WEB DL H264 V | hitler stalin roots of evil | helena valentine interracial anal |