Quick Browse
TV shows

Latest Articles

Torrent Download
Free Movies
Torrent Downloads

Verified torrent Thor.2011.TS.READNFO.XViD-AAC

    Seeders : 1      Leechers : 0

Hash :63B9F2CA76F496B9AE073CF6B4493B5D38DA9C65
Added :1 Year+ by milsanaup1Verified torrent uploader in Movies
Size :1.3 GB
Stream :Watch Online Full Movie @ Movie4u
Share :

Download Direct And Anonymously

Warning! Do not Download Torrents Without a VPN!
Your IP Address is .   And Location is
Your Internet Provider and Government can track your torrent Activity!  Hide your IP ADDRESS with a VPN!
We Strongly Recommend Using CyberGhost VPN to Anonymize your Torrenting.

Note :

Please Update (Trackers Info) Before Downloading Torrents to See Updated Seeders And Leechers for Batter Download Speed.

Trackers List

Tracker NameLast CheckStatusSeedersLeechers

Torrent File Content (5 files)

     Thor.2011.TS.READNFO.XViD-AAC.avi -
1.29 GB

     Thor.2011.TS.READNFO.XViD - SAMPLE.avi -
9.87 MB

     Thor 2011 TS READNFO XViD.nfo -
4.9 KB

     HELP.nfo -
1.32 KB

     Torrent downloaded from Demonoid.me.txt -
46 bytes



IMDB Rating.......:7.8/10
Video Codec.......: XVID Release Date......:01/05/11
Audio Codec.......:MP3 Theatre Date......:27/05/11 limited
Audio Bitrate.....:128 Runtime.......:1h 44mn
Subtitles.........:NIL Language..........:ENGLISH
Resolution...... 720 x 304 IMDb URL..........:http://www.imdb.com/title/tt0800369/


ID : 0
Format : MPEG-4 Visual
Format profile : Advanced [email protected]
Format settings, BVOP : 2
Format settings, QPel : No
Format settings, GMC : No warppoints
Format settings, Matrix : Default (MPEG)
Muxing mode : Packed bitstream
Codec ID : XVID
Codec ID/Hint : XviD
Duration : 1h 44mn
Bit rate : 1 636 Kbps
Width : 720 pixels
Height : 304 pixels
Display aspect ratio : 2.35:1
Frame rate : 25.000 fps
Color space : YUV
Chroma subsampling : 4:2:0
Bit depth : 8 bits
Scan type : Progressive
Compression mode : Lossy
Bits/(Pixel*Frame) : 0.299
Stream size : 1.19 GiB (92%)
Writing library : XviD 61

ID : 2
Format : AAC
Format/Info : Advanced Audio Codec
Format version : Version 4
Format profile : LC
Format settings, SBR : No
Codec ID : 40
Duration : 1h 58mn
Bit rate mode : Variable
Bit rate : 224 Kbps
Maximum bit rate : 312 Kbps
Channel(s) : 2 channels
Channel positions : Front: L R
Sampling rate : 44.1 KHz
Stream size : 190 MiB (14%)


AUDIO:Thanks m8ty


Bringing you another release..........Thor 2011

Here we go with our V1 of Thor....for this we used cinedubs video,which was half decent but had faults
like normaly with theirs :( ....yes the dreaded flicker
Now the flicker isn't has bad as some of theirs and only happens now and again and now from start to end...
Also because they've used an auto white filter ....on some scenes you get a blue hue over the screen.
Right fixed video by resizing,fixing colours best we could ...and also lowered the chroma,also messed with the
brightness and contrast levels and also made it duller to tone down the glares it had.
Audio we synced but never had full credits so we had to cut them...hence the runtime being shorter....but we did leave
the after credit scene ;-)

For now this will do most ....specially those that moan it doesn't work on their ps3's as this one works in the toastie or
microwave and most users have one of them ;-)
Oh also convert the line audio to DTS 69.1 for those that get the 69.1 surround sound in the future ....so this is future proof
aswell ....









And to all the other p2p grps past and present

Related torrents

Torrent NameAddedSizeSeedLeechHealth
9 months ago - in Movies862.85 MB00
9 months ago - in Movies1.08 GB00
1 Year+ - in Movies699.77 MB18
1 Year+ - in Movies1.52 GB269
1 Year+ - in Movies1.6 GB00

Note :

Feel free to post any comments about this torrent, including links to Subtitle, samples, screenshots, or any other relevant information. Please Dont Download anything from Comments, And Dont Post Links to Streaming Sites like Fmovies, Xmovies8, 123Movies, GoMovies, CMovieshd, Solarmovie, Watchfree, Putlockers, GoStream, m4ufree etc.

Comments (0 Comments)

Please login or create a FREE account to post comments

Latest Searches

| romantic and slow | SpyFam Desperate Stepdaughter Fucks Stepdad | StepMomLessons Vicky Love Zazie Skymm | Darina babe GG142 exclusive | panic coda | pink Floyd classic | sherman mp3 | james deen romance | 2 dvd 2 download | Battle Los Angeles 2011 1080p |