Quick Browse
Movies
TV shows
Music
Games
Applications
Anime
Other
Facebook
Advertising

Friends
Torrent Download
Movie4u
1337x.to
Torrent Downloads




Verified torrent Thor.2011.TS.READNFO.XViD-AAC


    Seeders : 1      Leechers : 0
Hash :63B9F2CA76F496B9AE073CF6B4493B5D38DA9C65
Added :1 Year+ by milsanaup1Verified torrent uploader in Movies
Size :1.3 GB
Stream :WATCH ONLINE @ Movie4u


Thor.2011.TS.READNFO.XViD-AAC
Free and Fast Download with Usenet 300GB+ free







Trackers List

Tracker NameLast CheckStatusSeedersLeechers




Torrent File Content (5 files)


Thor.2011.TS.READNFO.XViD-AAC
     Thor.2011.TS.READNFO.XViD-AAC.avi -
1.29 GB

     Thor.2011.TS.READNFO.XViD - SAMPLE.avi -
9.87 MB

     Thor 2011 TS READNFO XViD.nfo -
4.9 KB

     HELP.nfo -
1.32 KB

     Torrent downloaded from Demonoid.me.txt -
46 bytes



Description



http://www.oimag.com/iwave/images/43/o-thor-2011-new-poster.jpg




IMDB Rating.......:7.8/10
Video Codec.......: XVID Release Date......:01/05/11
Audio Codec.......:MP3 Theatre Date......:27/05/11 limited
Audio Bitrate.....:128 Runtime.......:1h 44mn
Subtitles.........:NIL Language..........:ENGLISH
Resolution...... 720 x 304 IMDb URL..........:http://www.imdb.com/title/tt0800369/


DETAILS:

Video
ID : 0
Format : MPEG-4 Visual
Format profile : Advanced [email protected]
Format settings, BVOP : 2
Format settings, QPel : No
Format settings, GMC : No warppoints
Format settings, Matrix : Default (MPEG)
Muxing mode : Packed bitstream
Codec ID : XVID
Codec ID/Hint : XviD
Duration : 1h 44mn
Bit rate : 1 636 Kbps
Width : 720 pixels
Height : 304 pixels
Display aspect ratio : 2.35:1
Frame rate : 25.000 fps
Color space : YUV
Chroma subsampling : 4:2:0
Bit depth : 8 bits
Scan type : Progressive
Compression mode : Lossy
Bits/(Pixel*Frame) : 0.299
Stream size : 1.19 GiB (92%)
Writing library : XviD 61

Audio
ID : 2
Format : AAC
Format/Info : Advanced Audio Codec
Format version : Version 4
Format profile : LC
Format settings, SBR : No
Codec ID : 40
Duration : 1h 58mn
Bit rate mode : Variable
Bit rate : 224 Kbps
Maximum bit rate : 312 Kbps
Channel(s) : 2 channels
Channel positions : Front: L R
Sampling rate : 44.1 KHz
Stream size : 190 MiB (14%)


[color=yellow]SOURCES:[/color]

VIDEO:Thor.iNT.CAM.XviD.Hungarian-G1-CiNEDUB
AUDIO:Thanks m8ty

[color=yellow]NOTES:[/color]

Bringing you another release..........Thor 2011

Here we go with our V1 of Thor....for this we used cinedubs video,which was half decent but had faults
like normaly with theirs :( ....yes the dreaded flicker
Now the flicker isn't has bad as some of theirs and only happens now and again and now from start to end...
Also because they've used an auto white filter ....on some scenes you get a blue hue over the screen.
Right fixed video by resizing,fixing colours best we could ...and also lowered the chroma,also messed with the
brightness and contrast levels and also made it duller to tone down the glares it had.
Audio we synced but never had full credits so we had to cut them...hence the runtime being shorter....but we did leave
the after credit scene ;-)

For now this will do most ....specially those that moan it doesn't work on their ps3's as this one works in the toastie or
microwave and most users have one of them ;-)
Oh also convert the line audio to DTS 69.1 for those that get the 69.1 surround sound in the future ....so this is future proof
aswell ....


[color=yellow]SCREENS:[/color]

http://img19.imageshack.us/img19/5431/vlcsnap2011052108h21m18.png

http://img543.imageshack.us/img543/8032/vlcsnap2011052108h21m53.png

http://img839.imageshack.us/img839/7098/vlcsnap2011052108h24m29.png

http://img836.imageshack.us/img836/9241/vlcsnap2011052108h27m32.png

http://img41.imageshack.us/img41/8098/vlcsnap2011052108h27m49.png

http://img204.imageshack.us/img204/3055/vlcsnap2011052108h28m00.png



[color=yellow]GREETS:[/color]

FLAWL3SS,ViSiON,Rx,ELEKTRI4KA,ADDiCTED,Autotron,CiNEDUB,CRYS,T0XiCiNK ,
And to all the other p2p grps past and present

Related torrents

Torrent NameAddedSizeSeedLeechHealth
1 Year+ - in Movies699.77 MB18
1 Year+ - in Movies1.52 GB269
1 Year+ - in Movies1.6 GB00
1 Year+ - in Movies1.52 GB1011
1 Bad
Verified torrent
1 Year+ - in Movies1.52 GB12

Comments (0 Comments)




Please login or create a FREE account to post comments

Latest Searches

| j brothers remix | mana llore un rio | Joe di | mean foot | Absolute c 5 | ebony threesome with harley dean skin diamond | Absolute C 6 | 4 doors down the better life | 2016 allied | descendant of the sun episode 456 |