Quick Browse
Movies
TV shows
Music
Games
Applications
Anime
Other
Facebook
Friends
Torrent Download
Free Movies
1337x.to
Torrent Downloads

Verified torrent Thor (2011) DVDRip XviD-P2P


    Seeders : 0      Leechers : 0
Hash :E96B6BDC47F7D431F6887F0F6D2F32802D960004
Added :1 Year+ by robyrsVerified torrent uploader in Movies
Size :1.63 GB
Stream :Watch Full Movies Online @ Movie4u
Share :


Thor (2011) DVDRip XviD-P2P
Anonymous and Direct Download 300GB+ free







Warning! Do not Download Torrents Without a VPN!
Your IP Address is .   And Location is
Your Internet Provider and Government can track your torrent Activity!  Hide your IP ADDRESS with a VPN!
We Strongly Recommend Using SpyOFF Torrent VPN to Anonymize your Torrenting. It's FREE For 15 Days!

Note :

Please Update (Trackers Info) Before Downloading Torrents to See Updated Seeders And Leechers for Batter Download Speed.

Trackers List

Tracker NameLast CheckStatusSeedersLeechers




Torrent File Content (12 files)


Thor (2011) DVDRip XviD-P2P
     File Copied From Demonoid.me -
171.29 MB

     Hard Subs[Nynorsk] -
163.51 MB

     Image.jpeg -
11.15 KB

     Movie.nfo -
4.74 KB

     Subs[ENG].srt -
143.12 MB

     Subs[FRENCH].srt -
150.91 MB

     Thor (2011) DVDRip XviD-P2P.avi -
849.71 MB

     Torrent downloaded from Demonoid.me.txt -
46.69 MB

     Torrent downloaded from Rarbg.txt -
49.61 MB

     Torrent downloaded from TorrentState.txt -
47.67 MB

     Torrents downloaded from Extratorrent.txt -
44.75 MB

     Tracked_by_H33t_com.txt -
2.92 MB



Description



Thor (2011) DVDRip XviD-P2P
-------------------------------------------------------------------
Please share....Dont hit and run...Seed it back at least once.
Of course, if you want to seed it back more than once, that would be ok too
-------------------------------------------------------------------
QUALITY: PERFECT 10/10
All details are here:
Format | AVI Language | ENGLISH
Source | DVD PAL Subs | Nynorks

- Video
ID : 0
Format : MPEG-4 Visual
Format profile : Advanced [email protected]
Format settings, BVOP : Yes
Format settings, QPel : No
Format settings, GMC : No warppoints
Format settings, Matrix : Default (H.263)
Muxing mode : Packed bitstream
Codec ID : XVID
Codec ID/Hint : XviD
Bit rate : 1 345 Kbps
Width : 720 pixels
Height : 314 pixels
Display aspect ratio : 2.25:1
Frame rate : 29.970 fps
Color space : YUV
Chroma subsampling : 4:2:0
Bit depth : 8 bits
Scan type : Progressive
Compression mode : Lossy
Bits/(Pixel*Frame) : 0.198
Stream size : 1.19 GiB (87%)
Writing library : XviD 1.1.0 (UTC 2005-11-22)
- Audio
ID : 1
Format : AC-3
Format/Info : Audio Coding 3
Mode extension : CM (complete main)
Codec ID : 2000
Bit rate mode : Constant
Bit rate : 192 Kbps
Channel(s) : 2 channels
Channel positions : Front: L R
Sampling rate : 48.0 KHz
Bit depth : 16 bits
Compression mode : Lossy
Stream size : 175 MiB (12%)
Alignment : Aligned on interleaves
Interleave, duration : 33 ms (1.00 video frame)
Interleave, preload duration : 512 ms

- Greets
Greets to | X | Joshua08 | IMAGiNE | PrisM | DiGiTAL iNK |
-------------------------------------------------------------------
Please share....Dont hit and run...Seed it back at least once.
Of course, if you want to seed it back more than once, that would be ok too
-------------------------------------------------------------------
-------------------------------------------------------------------
Please share....Dont hit and run...Seed it back at least once.
Of course, if you want to seed it back more than once, that would be ok too
-------------------------------------------------------------------
- Notes
Im looking for anybody who Wants to Supply
Direct or Line Audio. Pre Released R5s,
Screeners, NTSC or PAL Pre Retail DVDs
or Anything else Usefull

-------------------------------------------------------------------------

Related torrents

Torrent NameAddedSizeSeedLeechHealth
2 months ago - in Movies5.5 GB51
1 Year+ - in Movies1.32 GB02
8 months ago - in Movies944.5 MB80
8 months ago - in Movies944.5 MB00
10 months ago - in Other25.65 GB00

Comments (0 Comments)




Please login or create a FREE account to post comments

Latest Searches

| Riverdale s01e11 eztv | malena morgan getting | mom son retro | Ai Miyazaki a | FR audio | Riverdale s01e10 eztv | Rapid Fire 1992 DVDRiP XviD AC3 BHRG | crazy shower | mom son classic | Wolf Author Dimension |