Quick Browse
Movies
TV shows
Music
Games
Applications
Anime
Other

Donate and Support

Friends
Torrents.me
Torrent Download
Free Movies
1337x
RARBG
Torrent Downloads

Verified torrent Thor 2011 TS READNFO XViD v2 - IMAGiNE


    Seeders : 1      Leechers : 2
Hash :E6853211FA8B7873399CAC2C2997639F4C6DE784
Added :1 Year+ by memory100Verified torrent uploader in Movies
Size :1.52 GB
Stream :Watch Full Movies Online @ Movie4u
Share :


Thor 2011 TS READNFO XViD v2 - IMAGiNE
Anonymous and Direct Download 300GB+ free







Warning! Do not Download Torrents Without a VPN!
Your IP Address is .   And Location is
Your Internet Provider and Government can track your torrent Activity!  Hide your IP ADDRESS with a VPN!
We Strongly Recommend Using SpyOFF Torrent VPN to Anonymize your Torrenting. It's FREE For 15 Days!

Note :

Please Update (Trackers Info) Before Downloading Torrents to See Updated Seeders And Leechers for Batter Download Speed.

Trackers List

Tracker NameLast CheckStatusSeedersLeechers




Torrent File Content (9 files)


Thor 2011 TS READNFO XViD v2 - IMAGiNE
     Budget seedboxs.txt -
44 bytes

     NW RG.nfo -
12.96 KB

     Thor 2011 TS READNFO XViD v2 - IMAGiNE.NFO -
5.06 KB

     Thor 2011 TS READNFO XViD v2 - IMAGiNE.avi -
1.49 GB

     Thor 2011 TS READNFO XViD v2 - SAMPLE.avi -
28.01 MB

     Torrent downloaded from Demonoid.me.txt -
46 bytes

     northernwarriors.net.txt -
135 bytes

     sceneunderground.org.txt -
77 bytes

     visiontracker.net.txt -
91 bytes



Description



http://img809.imageshack.us/img809/2680/posterfk.jpg

[code]
Thor 2011 TS READNFO XViD v2 - IMAGiNE

Ripper ...........: IMAGiNE IMDB Rating.......:7.8/10
Video Codec.......: XVID Release Date......:03/05/11
Audio Codec.......:MP3 Theatre Date......:27/04/11
Audio Bitrate.....:128 Runtime.......:1h 48mn
Subtitles.........:NIL Language..........:ENGLISH
Resolution...... 720 x 304 IMDb URL.......... http://www.imdb.com/title/tt0800369/

DETAILS:

Video
ID : 0
Format : MPEG-4 Visual
Format profile : Advanced [email protected]
Format settings, BVOP : 2
Format settings, QPel : No
Format settings, GMC : No warppoints
Format settings, Matrix : Default (MPEG)
Muxing mode : Packed bitstream
Codec ID : XVID
Codec ID/Hint : XviD
Duration : 1h 48mn
Bit rate : 1 829 Kbps
Width : 720 pixels
Height : 304 pixels
Display aspect ratio : 2.35:1
Frame rate : 25.000 fps
Color space : YUV
Chroma subsampling : 4:2:0
Bit depth : 8 bits
Scan type : Progressive
Compression mode : Lossy
Bits/(Pixel*Frame) : 0.334
Stream size : 1.39 GiB (93%)
Writing library : XviD 61

Audio
ID : 1
Format : MPEG Audio
Format version : Version 1
Format profile : Layer 3
Codec ID : 55
Codec ID/Hint : MP3
Duration : 1h 48mn
Bit rate mode : Constant
Bit rate : 128 Kbps
Channel(s) : 2 channels
Sampling rate : 44.1 KHz
Compression mode : Lossy
Stream size : 99.5 MiB (7%)
Alignment : Split accross interleaves
Interleave, duration : 40 ms (1.00 video frame)

Plot:The powerful but arrogant warrior Thor is cast out of the fantastic realm of Asgard and sent to

live amongst humans on Earth, where he soon becomes one of their finest defenders.

SOURCES:
VIDEO:Thor.2011.TRUEFRENCH.TS.MD.XviD-RESOLUTiON,Thor.iNT.CAM.XviD.Hungarian-G1-CiNEDUB ...Thanks
AUDIO:Thanks m8ty

NOTES:

IMAGiNE bringing you another release..........Thor 2011 v2 Ok heres our v2 lol ....Anyway for this we

used the new french cam ,but it was missing scenes so we append them with the cinedub release.

98% of the movie is the new source only a little bit is cinedubs video in a couple of parts and for

secs at a time...

but only way to bring you a full release The french video still needing cleaning,so we did our normal

stuff and the cinedub we already cleaned on our last release so we just cut the scenes from that one.
The audio just needed resyncing and then muxing over this encode.

Enjoy folks
[/code]
Screens:
http://img856.imageshack.us/img856/3623/63976020.jpg

http://img820.imageshack.us/img820/6557/17321795.jpg

http://img844.imageshack.us/img844/4228/79483943.jpg

http://img40.imageshack.us/img40/2497/81770692.jpg

http://img194.imageshack.us/img194/1414/87770561.png

http://img810.imageshack.us/img810/3306/59864839.jpg

Related torrents

Torrent NameAddedSizeSeedLeechHealth
1 Year+ - in Movies1.52 GB269
1 Year+ - in Movies1.6 GB00
1 Year+ - in Movies1.52 GB1011
2 Comments
1 Bad
Verified torrent
1 Year+ - in Movies1.38 GB00
1 Year+ - in Movies699.77 MB18

Comments (0 Comments)




Please login or create a FREE account to post comments

Latest Searches

| Romi Rain naughtyamericavr | teto baixo haikaiss | Blade series s01 | devlin ft diane | watching porn with my | every word ercola | e l abba | Flo Rida Wild Ones 2012 NewMp3Club | xxx evolution | betsie larkin invincible |