Quick Browse
Movies
TV shows
Music
Games
Applications
Anime
Other
Facebook
Advertising

Friends
Torrent Download
Movie4u
1337x.to
Torrent Downloads




Verified torrent Time Bomb


    Seeders : 1      Leechers : 5
Hash :BA0F8AFD92F834A083BC5917AEFE4C1F09200014
Added :1 Year+ by HannspreeVerified torrent uploader in Movies
Size :1.58 GB
Stream :WATCH ONLINE @ Movie4u


Time Bomb
Free and Fast Download with Usenet 300GB+ free







Trackers List

Tracker NameLast CheckStatusSeedersLeechers




Torrent File Content (8 files)


Time Bomb
    VIDEO_TS
          VIDEO_TS.BUP -
12 KB

          VIDEO_TS.IFO -
12 KB

          VIDEO_TS.VOB -
58 KB

          VTS_01_0.BUP -
64 KB

          VTS_01_0.IFO -
64 KB

          VTS_01_0.VOB -
60 KB

          VTS_01_1.VOB -
1023.97 MB

          VTS_01_2.VOB -
596.46 MB



Description



===============================================================================================
[ This torrent was uploaded by Hannspree on the 19th, June 2010 - I will be adding new torrents on a daily basis - Remember to seed ]
===============================================================================================
MOVIE TITLE: Time Bomb
LANGUAGE: English
MOVIE SUBS: No - (subtitles if/when required)
===============================================================================================
MOVIE DESC:

Jason tragically lost his young son when their SUV exploded. Now fighting as a soldier in Iraq, the suicide bombings that occur
around him on a daily basis constantly remind him of losing his son. An army scientist approaches Jason about an experimental
virus that would create a squad of suicide bombers they could use against the enemy. Uncertain if he has already been
infected by the virus, Jason must struggle to decipher which explosions are real and which are in his head.
===============================================================================================
MOVIE SPECS:

GENERAL:
Complete name : Time Bomb
Format : MPEG-PS
File size : 1.58 GB
Duration : 87 Minutes
Overall bit rate : 3 038 Kbps

VIDEO:
ID : 224 (0xE0)
Format : MPEG Video
Format version : Version 2
Format profile : [email protected]
Format settings, BVOP : Yes
Format settings, Matrix : Default
Duration : 87 Minutes
Bit rate mode : Variable
Bit rate : 2 785 Kbps
Nominal bit rate : 9 608 Kbps
Width : 720 pixels
Height : 576 pixels
Display aspect ratio : 16:9
Frame rate : 24.000 fps
Standard : PAL
Color space : YUV
Chroma subsampling : 4:2:0
Bit depth : 8 bits
Scan type : Progressive
Scan order : 2:2:2:2:2:2:2:2:2:2:2:3 Pulldown
Bits/(Pixel*Frame) : 0.280
Stream size : 939 MiB (92%)

AUDIO:
ID : 128 (0x80)
Format : AC-3
Format/Info : Audio Coding 3
Mode extension : CM (complete main)
Duration : 87 Minutes
Bit rate mode : Constant
Bit rate : 192 Kbps
Channel(s) : 2 channels
Channel positions : Front: L R
Sampling rate : 48.0 KHz
Stream size : 64.7 MiB (6%)
===============================================================================================
STREAM:

Video: MPEG2 Video 720x576 (16:9) [Video]
Audio: Dolby AC3 48000Hz stereo [AC3]
===============================================================================================
TOTAL FILE SIZE:

1.58 GB (1,699,420,160 bytes)
===============================================================================================
TORRENT CONTENTS:

8 Files in 2 Folders (VIDEO_TS & AUDIO_TS)
===============================================================================================
IMDB LINK:

http://www.imdb.com/title/tt1233551/
===============================================================================================
[ Another Free, high quality and ready too burn DVD movie from Hannspree. More will follow very soon. Please do be patient until then ]
===============================================================================================

Related torrents

Torrent NameAddedSizeSeedLeechHealth
1 Year+ - in Movies53.41 MB00
7 months ago - in TV shows148.11 MB00
8 months ago - in Other2.75 MB00
10 months ago - in TV shows269.98 MB00
11 months ago - in Other86.21 MB10
1 Year+ - in TV shows133.8 MB00

Comments (0 Comments)




Please login or create a FREE account to post comments

Latest Searches

| MENDES ILLUMINATE | temporada 2 vikingos | another code two memories | adobe photoshop cc 2015 32bit crack | lesbian veronica | Sasha Rose Renato | carrie fisher princess | Skyward Sword wii pal | amateur home s | 70s Classic Rnb |