Quick Browse
Movies
TV shows
Music
Games
Applications
Anime
Other
Facebook
Advertising

Friends
Torrent Download
Movie4u
1337x.to
Torrent Downloads




Verified torrent Timeline 2003 HDRip H264 AAC-Rx


    Seeders : 10      Leechers : 4
Hash :EB4CC6790EFCB78EBF163008FC76FEB5190815FA
Added :1 Year+ by SAHIBGREWVerified torrent uploader in Movies
Size :1.65 GB
Stream :WATCH ONLINE @ Movie4u


Timeline 2003 HDRip H264 AAC-Rx
Free and Fast Download with Usenet 300GB+ free







Trackers List

Tracker NameLast CheckStatusSeedersLeechers




Torrent File Content (7 files)


Timeline 2003 HDRip H264 AAC-Rx(Phoenix-RG)
    Cover
          Timeline.jpg -
224.18 KB

    Sites, Info, Tracker
          INFO.txt -
1.45 KB

          Torrent downloaded from AhaShare.com.txt -
59 bytes

          Torrent downloaded from thepiratebay.org.txt -
48 bytes

          Torrent downloaded from Demonoid.com.txt -
47 bytes

          tracked_by_h33t_com.txt -
23 bytes

     Timeline 2003 HDRip H264 AAC-Rx(Phoenix-RG).mp4 -
1.65 GB



Description



http://lookpic.com/d2/i2/2973/mnLLx3TW.jpeg




plot

In this case, a group of archaeologists and combat experts led by Paul Walker
and Frances O'Connor use a "3-D fax machine" (so much for technobabble!) to time-travel
back to France in 1357, in hopes of retrieving Walker's father and returning safely to the present.
No such luck! Fending for themselves against marauding hordes of medieval French warriors at war with
the invading British, these semi-intrepid travelers find their body count rising, and the deadline for
their return home is rapidly approaching.



info

Timeline 2003 HDRip H264 AAC-Rx(Phoenix-RG).mp4
Format : MPEG-4
Format profile : Base Media
Codec ID : isom
File size : 1.65 GiB
Duration : 1h 51mn
Overall bit rate : 2 123 Kbps

Video #1
Format : AVC
Format/Info : Advanced Video Codec
Format profile : [email protected]
Format settings, CABAC : Yes
Format settings, ReFrames : 3 frames
Codec ID : avc1
Codec ID/Info : Advanced Video Coding
Duration : 1h 51mn
Bit rate mode : Variable
Bit rate : 1 800 Kbps
Maximum bit rate : 8 597 Kbps
Width : 1 280 pixels
Height : 544 pixels
Display aspect ratio : 2.35
Frame rate mode : Constant
Frame rate : 25.000 fps
Resolution : 24 bits
Colorimetry : 4:2:0
Scan type : Progressive
Bits/(Pixel*Frame) : 0.103
Stream size : 1.40 GiB (85%)
Writing library : x264 core 98 r1649 c54c47d

Audio #2
Format : AAC
Format/Info : Advanced Audio Codec
Format version : Version 4
Format profile : LC
Format settings, SBR : No
Codec ID : 40
Duration : 1h 51mn
Bit rate mode : Variable
Bit rate : 321 Kbps
Maximum bit rate : 413 Kbps
Channel(s) : 6 channels
Channel positions : Front: L C R, Rear: L R, LFE
Sampling rate : 48.0 KHz
Resolution : 16 bits
Stream size : 255 MiB (15%)



imdb

http://www.imdb.com/title/tt0300556/


http://lookpic.com/d2/i2/3994/OqKiei6c.jpeg

Related torrents

Torrent NameAddedSizeSeedLeechHealth
1 Year+ - in Movies1.44 GB00
1 Year+ - in Movies1.45 GB13132
5 months ago - in Other1.38 GB20
1 Year+ - in Movies1.62 GB246
1 Year+ - in Movies1.96 GB6545

Comments (0 Comments)




Please login or create a FREE account to post comments

Latest Searches

| 100 drake | baker berlioz | funk me | Malwarebytes Anti Malware 1 7 Final serial | simplifying math | City babe | mad men s07e06 the strategy 720p web dl dd5 1 h 264 ntb publichd | how to away with murder S03E03 | pink floyd discography rock 1965 2016 mp3 | Richard G Lyons |