Quick Browse
Movies
TV shows
Music
Games
Applications
Anime
Other

Donate and Support

Friends
Torrents.me
Torrent Download
Free Movies
1337x
RARBG
Torrent Downloads

Verified torrent Tinker Bell [And The Great Fairy Rescue] [DVD5] [ENG] [AC3] [Hannspree]


    Seeders : 1      Leechers : 5
Hash :57FA02F4832E471AE33DB1B3D2CE2F0BCEB8CBEE
Added :1 Year+ by HannspreeVerified torrent uploader in Movies
Size :3.39 GB
Stream :Watch Full Movies Online @ Movie4u
Share :








Warning! Do not Download Torrents Without a VPN!
Your IP Address is .   And Location is
Your Internet Provider and Government can track your torrent Activity!  Hide your IP ADDRESS with a VPN!
We Strongly Recommend Using SpyOFF Torrent VPN to Anonymize your Torrenting. It's FREE For 15 Days!

Note :

Please Update (Trackers Info) Before Downloading Torrents to See Updated Seeders And Leechers for Batter Download Speed.

Trackers List

Tracker NameLast CheckStatusSeedersLeechers




Torrent File Content (16 files)


Tinker Bell [And The Great Fairy Rescue]
    Tinker Bell [And The Great Fairy Rescue] - [DVD5]
          VIDEO_TS/VIDEO_TS.BUP -
12 KB

          VIDEO_TS/VIDEO_TS.IFO -
12 KB

          VIDEO_TS/VIDEO_TS.VOB -
58 KB

          VIDEO_TS/VTS_01_0.BUP -
56 KB

          VIDEO_TS/VTS_01_0.IFO -
56 KB

          VIDEO_TS/VTS_01_0.VOB -
58 KB

          VIDEO_TS/VTS_01_1.VOB -
1023.97 MB

          VIDEO_TS/VTS_01_2.VOB -
1023.97 MB

          VIDEO_TS/VTS_01_3.VOB -
1023.97 MB

          VIDEO_TS/VTS_01_4.VOB -
393.82 MB

    Tinker Bell [And The Great Fairy Rescue] - [Images]
          Tinker Bell [And The Great Fairy Rescue] - [Screens1].jpg -
166.92 KB

          Tinker Bell [And The Great Fairy Rescue] - [Screens2].jpg -
135.88 KB

          Tinker Bell [And The Great Fairy Rescue] - [Screens3].jpg -
114.93 KB

          TinkerBell.jpg -
69.64 KB

     Tinker Bell [And The Great Fairy Rescue].NFO -
3.94 KB

     Torrent downloaded from Demonoid.com.txt -
47 bytes



Description



=====================================================================================
[ Another free, high quality, ready to burn DVD I will be adding new torrents on a daily basis - Remember to seed ]
=====================================================================================
MOVIE TITLE: Tinker Bell [And The Great Fairy Rescue]
LANGUAGE: English
MOVIE SUBS: No
BURN TESTED: Yes
FORMAT: Pal
GENRE: Animation | Family | Fantasy
RUNTIME: 77 Minutes
YEAR: 2010
IMDB LINK: http://www.imdb.com/title/tt1216515/
=====================================================================================
MOVIE DESC:

Tinker Bell must team up with a rival fairy to keep their existence a secret from humans.
=====================================================================================
MOVIE SPECS:

GENERAL:
Complete name : Tinker Bell [And The Great Fairy Rescue] [DVD5]
Format : MPEG-PS
File size : 3.38 GB
Duration : 77 Minutes
Overall bit rate : 7 389 Kbps

VIDEO:
ID : 224 (0xE0)
Format : MPEG Video
Format version : Version 2
Format profile : [email protected]
Format settings, BVOP : Yes
Format settings, Matrix : Default
Duration : 77 Minutes
Bit rate mode : Variable
Bit rate : 7 050 Kbps
Nominal bit rate : 9 608 Kbps
Width : 720 pixels
Height : 576 pixels
Display aspect ratio : 16:9
Frame rate : 24.000 fps
Standard : PAL
Color space : YUV
Chroma subsampling : 4:2:0
Bit depth : 8 bits
Scan type : Progressive
Scan order : 2:2:2:2:2:2:2:2:2:2:2:3 Pulldown
Bits/(Pixel*Frame) : 0.708
Stream size : 977 MiB (95%)

AUDIO:
ID : 128 (0x80)
Format : AC-3
Format/Info : Audio Coding 3
Mode extension : CM (complete main)
Duration : 77 Minutes
Bit rate mode : Constant
Bit rate : 192 Kbps
Channel(s) : 2 channels
Channel positions : Front: L R
Sampling rate : 48.0 KHz
Stream size : 26.6 MiB (3%)
=====================================================================================
TRACKER:
http://inferno.demonoid.com:3402/announce
http://denis.stalker.h3q.com:6969/announce
http://nemesis.1337x.org/announce
http://exodus.1337x.org/announce
http://tracker.publicbt.com/announce
http://10.rarbg.com/announce
http://tracker.ilibr.org:6969/announce
http://tpb.tracker.prq.to/announce
http://rt.beeretracker.net/announce.php
http://red.tracker.prq.to/announce
http://tracker.torrentbox.com:2710/announce
=====================================================================================
[FOOT NOTE]
If you are happy with this download, it would be nice to hear your views or comments that you might have. Enjoy
=====================================================================================
Screen Shot Of Tinker Bell [And The Great Fairy Rescue]
=====================================================================================
http://leetpic.com/images/tinkerbell.jpg

=====================================================================================
http://leetpic.com/images/tinkeriri.jpg

=====================================================================================
http://leetpic.com/images/tinkerbrb.jpg

=====================================================================================

Related torrents

Torrent NameAddedSizeSeedLeechHealth
1 Year+ - in Movies4.39 GB167
1 Year+ - in Movies967.96 MB00
1 Year+ - in Movies1.85 GB31
1 Year+ - in Movies569.77 MB00
1 Year+ - in Movies300.63 MB00

Comments (0 Comments)




Please login or create a FREE account to post comments

Latest Searches

| k young feat one 2 | Lena Paul Busty Lenas Face Twat Boobs Fucked | live by night audio | 071817 463 | schoolgirl story | the mummy tomb of the dragon etrg | Shaw Davis The Black Ties | exclusive Ani | ddfbusty 17 07 18 | Going In Style 2017 1080p BluRay x264 |