Quick Browse
Movies
TV shows
Music
Games
Applications
Anime
Other
Facebook
Advertising

Friends
Torrent Download
Movie4u
1337x.to
Torrent Downloads




Verified torrent Tinker Tailor Soldier Spy 2011 R5 DVDRip XviD AC3-26K


    Seeders : 0      Leechers : 0
Hash :7270C0B12DE6B3807545478295851CB0E4CE2071
Added :1 Year+ by memory100Verified torrent uploader in Movies
Size :1.18 GB
Stream :WATCH ONLINE @ Movie4u


Tinker Tailor Soldier Spy 2011 R5 DVDRip XviD AC3-26K
Free and Fast Download with Usenet 300GB+ free







Trackers List

Tracker NameLast CheckStatusSeedersLeechers




Torrent File Content (7 files)


Tinker Tailor Soldier Spy 2011 R5 DVDRip XviD AC3-26K
     sample.avi -
24.66 MB

     sceneunderground.org.txt -
77 bytes

     att-networks.com.txt -
39 bytes

     Torrent downloaded from Demonoid.me.txt -
46 bytes

     Tinker Tailor Soldier Spy 2011 R5 DVDRip XviD AC3-26K.avi -
1.15 GB

     Tinker Tailor Soldier Spy 2011 R5 DVDRip XviD AC3-26K.nfo -
3.33 KB

     HDSceneRG.txt -
115 bytes



Description



http://img851.imageshack.us/img851/6860/itinkerr.jpg

[code]
Tinker Tailor Soldier Spy 2011 R5 DVDRip XviD AC3-26K

Imdb:
http://www.imdb.com/title/tt1340800/

Plot:
In the bleak days of the Cold War, espionage veteran George Smiley is forced from semi-retirement to uncover a Soviet agent within MI6's echelons.

Sources:
LUMX1 FOR DVDR!!!

Notes:
VERY GOOD VIDEO AND AUDIO! ENJOY!!

Greetz:
Xtreme Encode|FYA|ILLUMANTI|CM8|RX|VISION|HDSCENE|NIGHTMAREZ|xTriLL|DTRG|CRYS|REMIXHD|BIDA|RX|REFILL| INSPiRAL|SIC
To all the people who have helped me :P you know who you are

Anything to offer email us @: [email protected]

Video
ID : 0
Format : MPEG-4 Visual
Format profile : Advanced [email protected]
Format settings, BVOP : 2
Format settings, QPel : No
Format settings, GMC : No warppoints
Format settings, Matrix : Default (H.263)
Muxing mode : Packed bitstream
Codec ID : XVID
Codec ID/Hint : XviD
Duration : 2h 2mn
Bit rate : 953 Kbps
Width : 720 pixels
Height : 300 pixels
Display aspect ratio : 2.40:1
Frame rate : 25.000 fps
Color space : YUV
Chroma subsampling : 4:2:0
Bit depth : 8 bits
Scan type : Progressive
Compression mode : Lossy
Bits/(Pixel*Frame) : 0.176
Stream size : 832 MiB (71%)
Writing library : XviD 1.2.1 (UTC 2008-12-04)

Audio
ID : 1
Format : AC-3
Format/Info : Audio Coding 3
Mode extension : CM (complete main)
Codec ID : 2000
Duration : 2h 2mn
Bit rate mode : Constant
Bit rate : 384 Kbps
Channel(s) : 6 channels
Channel positions : Front: L C R, Side: L R, LFE
Sampling rate : 48.0 KHz
Bit depth : 16 bits
Compression mode : Lossy
Stream size : 335 MiB (28%)
Alignment : Aligned on interleaves
Interleave, duration : 32 ms (0.80 video frame)
Interleave, preload duration : 32 ms

[/code]
Screens:
http://img13.imageshack.us/img13/3782/vlcsnap2012010617h10m41.png

http://img713.imageshack.us/img713/1535/vlcsnap2012010617h11m08.png

http://img21.imageshack.us/img21/5436/vlcsnap2012010617h11m25.png

http://img3.imageshack.us/img3/3295/vlcsnap2012010617h11m41.png

http://img819.imageshack.us/img819/9306/vlcsnap2012010617h11m49.png


http://img851.imageshack.us/img851/5503/26ks.jpg
#
Thank you smallz for banner!

Related torrents

Torrent NameAddedSizeSeedLeechHealth
1 Year+ - in Movies1.16 GB00
1 Year+ - in Movies1.16 GB00
1 Year+ - in Movies1.16 GB00
1 Year+ - in Applications1.16 GB01
1 Year+ - in Movies1.18 GB1185

Comments (0 Comments)




Please login or create a FREE account to post comments

Latest Searches

| oil massage happy ending | spectral 2016 720p nf | The Anthony Cumia Show Ron Bennington | Wrong Turn 2 Dead End 2007 dual | mamekofsydemases | livesportstvpro | ESET Internet Security 10 License Keys | 2016 christmas mp3 | Mac dre best of | Live Undead Slayer |