Quick Browse
Movies
TV shows
Music
Games
Applications
Anime
Other
Facebook
Advertising

Friends
Torrent Download
Movie4u
1337x.to
Torrent Downloads




Verified torrent Tom Jobim - Antonio Carlos Jobim and Friends[EacFlacCue](TntVillage)


    Seeders : 15      Leechers : 25

Trackers List

Tracker NameLast CheckStatusSeedersLeechers




Torrent File Content (18 files)


Tom Jobim - Antonio Carlos Jobim and Friends
     00._%TomJobim%_-_%AntonioCarlosJobimAndFriends%.nfo -
2.26 KB

     01 - Medley- Inútil Paisagem , Triste , Esperança Perdida.flac -
26.83 MB

     02 - Ela É Carioca.flac -
33.44 MB

     03 - The Boy from Ipanema.flac -
16.16 MB

     04 - Once I Loved.flac -
30.5 MB

     05 - O Grande Amor.flac -
51.9 MB

     06 - No More Blues.flac -
32.83 MB

     07 - Água de Beber.flac -
32.2 MB

     08 - A Felicidade.flac -
24.81 MB

     09 - Se Todos Fossem Iguais a Voce.flac -
30.33 MB

     10 - Luiza.flac -
16.3 MB

     11 - Wave.flac -
25.29 MB

     12 - Caminhos Cruzados.flac -
24.38 MB

     13 - The Girl from Ipanema.flac -
50.42 MB

     Antonio Carlos Jobim - Jobim And Friends - Front.jpg -
119.83 KB

     Antonio Carlos Jobim and Friends.cue -
2.14 KB

     Tom Jobim - Antonio Carlos Jobim and Friends.log -
14.6 KB

     Tom Jobim - Antonio Carlos Jobim and Friends.m3u -
380 bytes



Description




http://img198.imageshack.us/img198/2434/progettocover.jpg


http://img812.imageshack.us/img812/2888/antoniocarlosjobimjobim.jpg


http://img85.imageshack.us/img85/2888/antoniocarlosjobimjobim.jpg


http://img7.imageshack.us/img7/6152/antoniocarlosjobimjobim.gif


Artist: Antonio Carlos Jobim
Title Of Album: Antonio Carlos Jobim And Friends
Recorded live at the Free Jazz Festival, Sao Paulo, Brazil on September 27, 1993.
Label: verve
Genre: Jazz
Genre: Mpb
Style: Jazz
Source: CD
Playing Time: 73:57
Total Size: 395,39 MB
Quality: FLAC+Cue+Log
Bitrate: Lossless
Band:
Antonio Carlos Jobim – vocals, piano,
Herbie Hancock - Piano, Keyboards,
Joe Henderson – Tenor Saxophone,
Shirley Horn – Piano, Vocal,
Gal Costa – Vocal,
Jon Hendricks – Vocal,
Gonzalo Rubalcaba – Piano,
Oscar Castro-Neves – Guitar,
Paulo Jobim – Guitar,
Ron Carter – Bass,
Harvey Mason – Drums,
Alex Acuna – Percussion.


http://img98.imageshack.us/img98/9113/progettotracklist.jpg


01 Medley: Inutil Paisagem, Triste, Esperanca Perdida(8:27)
02 Ela é Carioca(6:21)
03 The Boy From Ipanema(2:40)
04 Once I Loved(5:28)
05 O Grande Amor(9:26)
06 No More Blues(5:21)
07 Agua De Beber(6:02)
08 A Felicidade(4:55)
09 Se Todos Fossem Iguais A Voce(5:04)
10 Luiza(3:27)
11 Wave(4:23)
12 Caminhos Cruzados(4:28)
13 FINALE: The Girl From Ipanema(7:54)

http://img210.imageshack.us/img210/734/progettorecensione.jpg


Registrato al Festival Jazz di San Paulo il 27 settembre 1993, appena un anno prima della morte di Antonio Carlos Jobim, Antonio Carlos Jobim e AMICI è un all-star, omaggio al padre della bossa nova, la miscela di tradizione samba brasiliana e cool jazz americano che era di gran moda a metà degli anni '60. Spiccano un gran numero di stelle, tra cui il pianista Herbie Hancock, il bassista Ron Carter, il percussionista Alex Acuna e cantanti del calibro di Gal Costa e Jon Hendricks, per non parlare di Jobim figlio alla chitarra. Le 13-track set appaiono nitide. L'ouverture in stile "Melody Preludio" apre il CD con un trio di melodie bellissime, forse tra le più complesse di Jobim, interpretate perfettamente dal gruppo assemblato. La musica continua attraverso una scelta del Jobim classico e piuttosto oscuro. La jam session di chiusura di "The Girl From Ipanema" è l'unico passo falso in questo album altrimenti delizioso.

http://img713.imageshack.us/img713/7143/progettodatitecnici.jpg


[quote]Exact Audio Copy V1.0 beta 3 from 29. August 2011

EAC extraction logfile from 27. January 2012, 14:06

Tom Jobim / Antonio Carlos Jobim and Friends

Used drive : HL-DT-STDVDRAM GSA-T40N Adapter: 0 ID: 0

Read mode : Secure
Utilize accurate stream : Yes
Defeat audio cache : Yes
Make use of C2 pointers : No

Read offset correction : 667
Overread into Lead-In and Lead-Out : No
Fill up missing offset samples with silence : Yes
Delete leading and trailing silent blocks : No
Null samples used in CRC calculations : Yes
Used interface : Native Win32 interface for Win NT & 2000
Gap handling : Not detected, thus appended to previous track

Used output format : User Defined Encoder
Selected bitrate : 896 kBit/s
Quality : High
Add ID3 tag : No
Command line compressor : C:Program FilesExact Audio CopyFLACFLAC.EXE
Additional command line options : -8 -V -T "ARTIST=%artist%" -T "TITLE=%title%" -T "ALBUM=%albumtitle%" -T "DATE=%year%" -T "TRACKNUMBER=%tracknr%" -T "GENRE=%genre%" -T "COMMENT=%comment%" -T "BAND=%albuminterpret%" -T "ALBUMARTIST=%albuminterpret%" -T "COMPOSER=%composer%" %haslyrics%--tag-from-file=LYRICS="%lyricsfile%"%haslyrics% -T "DISCNUMBER=%cdnumber%" -T "TOTALDISCS=%totalcds%" -T "TOTALTRACKS=%numtracks%" %hascover%--picture="%coverfile%"%hascover% %source% -o %dest%


TOC of the extracted CD

Track | Start | Length | Start sector | End sector
---------------------------------------------------------
1 | 0:00.00 | 8:29.35 | 0 | 38209
2 | 8:29.35 | 6:23.47 | 38210 | 66981
3 | 14:53.07 | 2:42.55 | 66982 | 79186
4 | 17:35.62 | 5:28.55 | 79187 | 103841
5 | 23:04.42 | 9:27.28 | 103842 | 146394
6 | 32:31.70 | 5:26.37 | 146395 | 170881
7 | 37:58.32 | 5:57.23 | 170882 | 197679
8 | 43:55.55 | 4:58.40 | 197680 | 220069
9 | 48:54.20 | 5:05.70 | 220070 | 243014
10 | 54:00.15 | 3:29.17 | 243015 | 258706
11 | 57:29.32 | 4:24.70 | 258707 | 278576
12 | 61:54.27 | 4:30.68 | 278577 | 298894
13 | 66:25.20 | 7:56.00 | 298895 | 334594


Track 1

Filename F:Nuova cartellaTom Jobim - Antonio Carlos Jobim and Friends?1 - Medley- Inútil Paisagem , Triste , Esperança Perdida.flac

Peak level 100.0 %
Extraction speed 2.4 X
Track quality 100.0 %
Test CRC 4F9ACB44
Copy CRC 4F9ACB44
Cannot be verified as accurate (confidence 4) [903415D6], AccurateRip returned [8AC54AD7] (AR v2)
Copy OK

Track 2

Filename F:Nuova cartellaTom Jobim - Antonio Carlos Jobim and Friends?2 - Ela É Carioca.flac

Peak level 100.0 %
Extraction speed 2.6 X
Track quality 100.0 %
Test CRC 8BFA6039
Copy CRC 8BFA6039
Cannot be verified as accurate (confidence 4) [33884C8D], AccurateRip returned [3B3F2F84] (AR v2)
Copy OK

Track 3

Filename F:Nuova cartellaTom Jobim - Antonio Carlos Jobim and Friends?3 - The Boy from Ipanema.flac

Peak level 100.0 %
Extraction speed 2.6 X
Track quality 100.0 %
Test CRC CD4E3497
Copy CRC CD4E3497
Cannot be verified as accurate (confidence 4) [52875995], AccurateRip returned [FDA15D18] (AR v2)
Copy OK

Track 4

Filename F:Nuova cartellaTom Jobim - Antonio Carlos Jobim and Friends?4 - Once I Loved.flac

Peak level 84.9 %
Extraction speed 2.9 X
Track quality 100.0 %
Test CRC C3BA572C
Copy CRC C3BA572C
Cannot be verified as accurate (confidence 4) [1A53A897], AccurateRip returned [109EE8CC] (AR v2)
Copy OK

Track 5

Filename F:Nuova cartellaTom Jobim - Antonio Carlos Jobim and Friends?5 - O Grande Amor.flac

Peak level 95.5 %
Extraction speed 3.1 X
Track quality 99.9 %
Test CRC D0EC1C7E
Copy CRC D0EC1C7E
Cannot be verified as accurate (confidence 4) [4B81B6AE], AccurateRip returned [E94A98B8] (AR v2)
Copy OK

Track 6

Filename F:Nuova cartellaTom Jobim - Antonio Carlos Jobim and Friends?6 - No More Blues.flac

Peak level 100.0 %
Extraction speed 3.2 X
Track quality 100.0 %
Test CRC 7ED2E141
Copy CRC 7ED2E141
Cannot be verified as accurate (confidence 4) [0CBDA3A9], AccurateRip returned [26C36A86] (AR v2)
Copy OK

Track 7

Filename F:Nuova cartellaTom Jobim - Antonio Carlos Jobim and Friends?7 - Água de Beber.flac

Peak level 100.0 %
Extraction speed 3.6 X
Track quality 100.0 %
Test CRC 41CD1228
Copy CRC 41CD1228
Cannot be verified as accurate (confidence 4) [CEFC7032], AccurateRip returned [FC575309] (AR v2)
Copy OK

Track 8

Filename F:Nuova cartellaTom Jobim - Antonio Carlos Jobim and Friends?8 - A Felicidade.flac

Peak level 100.0 %
Extraction speed 3.7 X
Track quality 100.0 %
Test CRC 9A8882DA
Copy CRC 9A8882DA
Cannot be verified as accurate (confidence 4) [58D21753], AccurateRip returned [49D597E0] (AR v2)
Copy OK

Track 9

Filename F:Nuova cartellaTom Jobim - Antonio Carlos Jobim and Friends?9 - Se Todos Fossem Iguais a Voce.flac

Peak level 100.0 %
Extraction speed 3.7 X
Track quality 100.0 %
Test CRC 388927D6
Copy CRC 388927D6
Cannot be verified as accurate (confidence 4) [2CAD3E1F], AccurateRip returned [92040187] (AR v2)
Copy OK

Track 10

Filename F:Nuova cartellaTom Jobim - Antonio Carlos Jobim and Friends10 - Luiza.flac

Peak level 88.8 %
Extraction speed 3.7 X
Track quality 100.0 %
Test CRC 84C2FFE3
Copy CRC 84C2FFE3
Cannot be verified as accurate (confidence 4) [A72C0D22], AccurateRip returned [ABA36E17] (AR v2)
Copy OK

Track 11

Filename F:Nuova cartellaTom Jobim - Antonio Carlos Jobim and Friends11 - Wave.flac

Peak level 100.0 %
Extraction speed 3.5 X
Track quality 99.9 %
Test CRC C06334E0
Copy CRC C06334E0
Cannot be verified as accurate (confidence 4) [62F2BF4C], AccurateRip returned [2841837B] (AR v2)
Copy OK

Track 12

Filename F:Nuova cartellaTom Jobim - Antonio Carlos Jobim and Friends12 - Caminhos Cruzados.flac

Peak level 100.0 %
Extraction speed 3.5 X
Track quality 99.9 %
Test CRC FC498A9D
Copy CRC FC498A9D
Cannot be verified as accurate (confidence 4) [4A60927D], AccurateRip returned [999EFAB6] (AR v2)
Copy OK

Track 13

Filename F:Nuova cartellaTom Jobim - Antonio Carlos Jobim and Friends13 - The Girl from Ipanema.flac

Peak level 100.0 %
Extraction speed 4.2 X
Track quality 100.0 %
Test CRC 5DD7D536
Copy CRC 5DD7D536
Cannot be verified as accurate (confidence 4) [B7102C1E], AccurateRip returned [7E2E82EF] (AR v2)
Copy OK

No errors occurred

End of status report

==== Log checksum 9482ED3E71D3F797312F04FEA826699A7214A581A04B7F024406718120DC0970 ====[/quote]

http://img521.imageshack.us/img521/763/progettobandaeseed.jpg


24h: 80/90 Kb/s

Related torrents

Torrent NameAddedSizeSeedLeechHealth
1 Year+ - in Music203.4 MB930
Verified torrent
1 Year+ - in Music369.35 MB273
Verified torrent
1 Year+ - in Music142.89 MB829
1 Year+ - in Other2.47 MB10
1 Year+ - in Music69.75 MB041

Comments (0 Comments)




Please login or create a FREE account to post comments

Latest Searches

| need for speed complete pc | Riley Renee HEVC | south park uncensored s20e09 | smd 116 s model 116 meat urinal training plan aoi shirosaki 12 25 14 uncensored | The Walking Dead s07e07 | Avril Lavigne I m With You | Man earth s03e08 | alo windows | Jav Uncensored Miku Kohinata | macgyver s1e09 |