Quick Browse
Movies
TV shows
Music
Games
Applications
Anime
Other
Facebook
Advertising

Friends
Torrent Download
Movie4u
1337x.to
Torrent Downloads




Tool - Undertow [Eac Flac Cue-TNTVillage]


    Seeders : 1      Leechers : 6
Hash :F211BF808E2729FB219DD74C6AAF99419A12D219
Added :1 Year+ by submarcosVerified torrent uploader in Music - Music
Size :411.58 MB
Stream :WATCH ONLINE @ Movie4u


Tool - Undertow [Eac Flac Cue-TNTVillage]
Free and Fast Download with Usenet 300GB+ free







Trackers List

Tracker NameLast CheckStatusSeedersLeechers




Torrent File Content (16 files)


Tool (1993) - Undertow
    cover
          back.jpg -
1005.63 KB

          front.jpg -
246.72 KB

          cd.jpg -
172.03 KB

     10 - Disgustipated.flac -
64.05 MB

     04 - Bottom.flac -
48.68 MB

     09 - Flood.flac -
47.58 MB

     08 - 4°.flac -
38.72 MB

     06 - Swamp Song.flac -
37.31 MB

     07 - Undertow.flac -
37.25 MB

     05 - Crawl Away.flac -
36.85 MB

     03 - Sober.flac -
33.83 MB

     02 - Prison Sex.flac -
33.11 MB

     01 - Intolerance.flac -
32.79 MB

     Tool - Undertow.log -
9.83 KB

     Undertow.cue -
1.28 KB

     Tool - Undertow.m3u -
200 bytes



Description



.: Original Release:.
http://www.tntvillage.scambioetico.org/?act=showrelease&id=263850

[::Cover::]

http://img705.imageshack.us/img705/4946/coverdjkn.jpg


Artist: Tool
Title: Undertow
Genre: Metal
Year: 1999

[ :: Tracklist :: ]
01. Intolerance [4:56]
02. Prison Sex [3:15]
03. Sober [5:09]
04. Bottom [7:16]
05. Crawl Away [5:31]
06. Swamp Song [5:33]
07. Undertow [5:24]
08. 4° [6:05]
09. Flood [7:57]
10. Disgustipated [15:45]

[ :: Technical Data :: ]
Encoder: EAC 1.02 b2 (Secure Mode,Accuraterip,Test & Copy)
Codec: Flac 1.2.1
Profile: 6

EAC LOG:

Exact Audio Copy V1.0 beta 2 from 29. April 2011

EAC extraction logfile from 6. September 2011, 21:21

Tool / Undertow

Used drive : JLMS XJ-HD166S Adapter: 1 ID: 0

Read mode : Secure
Utilize accurate stream : Yes
Defeat audio cache : Yes
Make use of C2 pointers : Yes

Read offset correction : 12
Overread into Lead-In and Lead-Out : No
Fill up missing offset samples with silence : Yes
Delete leading and trailing silent blocks : No
Null samples used in CRC calculations : Yes
Used interface : Native Win32 interface for Win NT & 2000
Gap handling : Appended to previous track

Used output format : User Defined Encoder
Selected bitrate : 768 kBit/s
Quality : High
Add ID3 tag : No
Command line compressor : C:\NoUAC\Exact Audio Copy\FLAC\FLAC.EXE
Additional command line options : -6 -V -T "ARTIST=%artist%" -T "TITLE=%title%" -T "ALBUM=%albumtitle%"
-T "DATE=%year%" -T "TRACKNUMBER=%tracknr%" -T "GENRE=%genre%" -T "COMMENT=EAC1.0b2 Secure Mode, Test & Copy, AccurateRip, FLAC 1.2.1 -6 (by Paky)"

TOC of the extracted CD

Track | Start | Length | Start sector | End sector
---------------------------------------------------------
1 | 0:00.00 | 4:54.10 | 0 | 22059
2 | 4:54.10 | 4:56.22 | 22060 | 44281
3 | 9:50.32 | 5:06.58 | 44282 | 67289
4 | 14:57.15 | 7:14.45 | 67290 | 99884
5 | 22:11.60 | 5:29.45 | 99885 | 124604
6 | 27:41.30 | 5:31.67 | 124605 | 149496
7 | 33:13.22 | 5:22.03 | 149497 | 173649
8 | 38:35.25 | 6:03.02 | 173650 | 200876
9 | 44:38.27 | 7:46.10 | 200877 | 235836
10 | 52:24.37 | 15:48.48 | 235837 | 306984


Track 1

Filename D:\Tool (1993) - Undertow\01 - Intolerance.wav

Pre-gap length 0:00:02.00

Peak level 100.0 %
Extraction speed 7.2 X
Track quality 99.9 %
Test CRC 5982F6B0
Copy CRC 5982F6B0
Accurately ripped (confidence 4) [75A254D5] (AR v2)
Copy OK

Track 2

Filename D:\Tool (1993) - Undertow\02 - Prison Sex.wav

Peak level 100.0 %
Extraction speed 9.8 X
Track quality 100.0 %
Test CRC 01E1CC10
Copy CRC 01E1CC10
Accurately ripped (confidence 4) [6C4CB020] (AR v2)
Copy OK

Track 3

Filename D:\Tool (1993) - Undertow\03 - Sober.wav

Peak level 100.0 %
Extraction speed 10.7 X
Track quality 100.0 %
Test CRC 59CBB4C8
Copy CRC 59CBB4C8
Accurately ripped (confidence 4) [6573E49F] (AR v2)
Copy OK

Track 4

Filename D:\Tool (1993) - Undertow\04 - Bottom.wav

Peak level 100.0 %
Extraction speed 12.2 X
Track quality 100.0 %
Test CRC 4E075DAF
Copy CRC 4E075DAF
Accurately ripped (confidence 4) [DE136924] (AR v2)
Copy OK

Track 5

Filename D:\Tool (1993) - Undertow\05 - Crawl Away.wav

Peak level 100.0 %
Extraction speed 12.7 X
Track quality 100.0 %
Test CRC 26A34266
Copy CRC 26A34266
Accurately ripped (confidence 4) [7FBF9AE5] (AR v2)
Copy OK

Track 6

Filename D:\Tool (1993) - Undertow\06 - Swamp Song.wav

Peak level 100.0 %
Extraction speed 13.1 X
Track quality 100.0 %
Test CRC D50E845B
Copy CRC D50E845B
Accurately ripped (confidence 4) [58C68A8A] (AR v2)
Copy OK

Track 7

Filename D:\Tool (1993) - Undertow\07 - Undertow.wav

Peak level 100.0 %
Extraction speed 13.8 X
Track quality 100.0 %
Test CRC 4AD64A49
Copy CRC 4AD64A49
Accurately ripped (confidence 4) [63DB0A33] (AR v2)
Copy OK

Track 8

Filename D:\Tool (1993) - Undertow\08 - 4°.wav

Peak level 100.0 %
Extraction speed 14.6 X
Track quality 100.0 %
Test CRC 22F01285
Copy CRC 22F01285
Accurately ripped (confidence 4) [0600F06B] (AR v2)
Copy OK

Track 9

Filename D:\Tool (1993) - Undertow\09 - Flood.wav

Peak level 100.0 %
Extraction speed 15.9 X
Track quality 100.0 %
Test CRC 8BE4FBE8
Copy CRC 8BE4FBE8
Accurately ripped (confidence 4) [F9BA9D78] (AR v2)
Copy OK

Track 10

Filename D:\Tool (1993) - Undertow\10 - Disgustipated.wav

Peak level 100.0 %
Extraction speed 11.3 X
Track quality 99.9 %
Test CRC F5D50381
Copy CRC F5D50381
Accurately ripped (confidence 3) [897C3DE5] (AR v2)
Copy OK


All tracks accurately ripped

No errors occurred

End of status report

==== Log checksum 7BE31DF056B97F05E027D7D2F94DFFF7FD93E2584F2C3C6AEBCDE8C366DB55CB ====

Related torrents

Torrent NameAddedSizeSeedLeechHealth
Verified torrent
1 Year+ - in Music389.13 MB713
Verified torrent
1 Year+ - in Music414.64 MB32
Verified torrent
1 Year+ - in Music367.87 MB118
Verified torrent
1 Year+ - in Music265.29 MB39
Verified torrent
1 Year+ - in Music266.11 MB10

Comments (0 Comments)




Please login or create a FREE account to post comments

Latest Searches

| black 50 | Bert Monroy Dreamscapes The Magic Orb | 1 years and all | The Elder Scrolls Skyrim Guide | The Dynasty La Familia | Once Upon a Time S06E10 PROPER HDTV | military guns | taken 3 lora della | dnfd | The Sherlock Holmes Book 2016 |