Quick Browse
Movies
TV shows
Music
Games
Applications
Anime
Other
Facebook
Advertising

Friends
Torrent Download
Movie4u
1337x.to
Torrent Downloads




Verified torrent Tower Heist (2011) DVDRip XviD-MAXSPEED


    Seeders : 1015      Leechers : 11362
Hash :F4B5634A53404036756C0C3D8FEA1CBD03DCFF67
Added :1 Year+ by piratepediaVerified torrent uploader in Movies
Size :1.32 GB
Stream :WATCH ONLINE @ Movie4u


Tower Heist (2011) DVDRip XviD-MAXSPEED
Free and Fast Download with Usenet 300GB+ free







Trackers List

Tracker NameLast CheckStatusSeedersLeechers




Torrent File Content (8 files)


Tower Heist (2011) DVDRip XviD-MAXSPEED
     Tower Heist (2011) DVDRip XviD-MAXSPEED www.torentz.3xforum.ro.avi -
1.32 GB

     sample.avi -
5.64 MB

     screencaps.jpeg -
554.93 KB

     Tower Heist (2011) DVDRip XviD-MAXSPEED.nfo -
2.62 KB

     Torrent downloaded from Demonoid.me.txt -
46 bytes

     Torrent downloaded from Extratorrent.com.txt -
40 bytes

     Torrent downloaded from Rarbg.com.txt -
33 bytes

     Torrent downloaded from h33t.com.txt -
32 bytes



Description



http://www.hotimg.com/direct/gcawpzz.jpg


Screens:

http://www.hotimg.com/direct/V69uPZN.jpg

http://www.hotimg.com/direct/VBXY7QT.jpg

http://www.hotimg.com/direct/hGD2sZd.jpg

http://www.hotimg.com/direct/kw6uMGx.jpg


Alternative:

[code]http://www.postimg.com/image/60000/photo-59583.jpg
http://www.postimg.com/image/60000/photo-59584.jpg
http://www.postimg.com/image/60000/photo-59585.jpg
http://www.postimg.com/image/60000/photo-59586.jpg[/code]

ScreenCaps:

http://www.postimg.com/60000/photo-59587.jpg


[code]Tower Heist (2011) DVDRip XviD-MAXSPEED
Format : AVI
Format/Info : Audio Video Interleave
Format profile : OpenDML
File size : 1.32 GiB
Duration : 1h 44mn
Overall bit rate : 1 800 Kbps
Writing application : VirtualDubMod 1.5.10.2 (build 2542/release)
Writing library : VirtualDubMod build 2542/release
Original source form : MAX TORRENTZ
Copyright : SIGISMUNT

Video
ID : 0
Format : MPEG-4 Visual
Format profile : [email protected]
Format settings, BVOP : Yes
Format settings, QPel : No
Format settings, GMC : No warppoints
Format settings, Matrix : Default (MPEG)
Codec ID : XVID
Codec ID/Hint : XviD
Duration : 1h 44mn
Bit rate : 1 411 Kbps
Width : 640 pixels
Height : 272 pixels
Display aspect ratio : 2.35:1
Frame rate : 23.976 fps
Resolution : 24 bits
Colorimetry : 4:2:0
Scan type : Progressive
Bits/(Pixel*Frame) : 0.338
Stream size : 1.03 GiB (78%)
Writing library : XviD 64

Audio
ID : 1
Format : AC-3
Format/Info : Audio Coding 3
Codec ID : 2000
Duration : 1h 44mn
Bit rate mode : Constant
Bit rate : 384 Kbps
Channel(s) : 6 channels
Channel positions : Front: L C R, Surround: L R, LFE
Sampling rate : 48.0 KHz
Stream size : 287 MiB (21%)
Alignment : Aligned on interleaves
Interleave, duration : 64 ms (1.53 video frames)
Interleave, preload duration : 192 ms

Source: DVD (perfect a/v/sync quality,sample included)
This torrent is not seedbox supported,please seed it to the MAX

Note: We need anything you can offer as early releases,seedboxes,links,accounts,etc
please contact us on piratepedia[@]msn/gmail.com or our website torentz 3xforum ro

How To Get Your Maxspeed (uTorrent)

Torrent Client - Preferences - Bandwidth - Number of connections - Set aprox. 500 for each
Torrent Client - Preferences - BiTorrent - Protocol Encryption - Forced
Bandwidth Allocation - High (Set download/upload limit - Unlimited)
Stop Other Active Torrents - Start downloading and wait for connections.
Enjoy and Seed for at least 1:1 ratio. Don't forget to say thanks/leave reviews.
Before downloading you should check/google search sample "release name""sample".
Greets to all actual/future p2p/scene QUALITY groups and affiliate websites.
Don't trust IMDb robot or bad ratings,always watch some trailers first.
Ignore stupid comments/fake/mislabeled/no-DVDrips/CAM/TS/RAR uploads.
Please spread this release/torrent to your friends/forums/etc.
If you need translation subs visit some subtitles sites.
Report if you see online streaming or other spam links.
Recommended movie player VLC PLAYER.[/code]

Related torrents

Torrent NameAddedSizeSeedLeechHealth
Last Month - in Movies859.11 MB00
7 months ago - in Movies261.41 MB00
7 months ago - in Movies3.23 GB00
7 months ago - in Movies1.44 GB00
8 months ago - in Movies2 GB00

Comments (0 Comments)




Please login or create a FREE account to post comments

Latest Searches

| girlsdoporn victoria f | contrasenso paulinho moska | am a man | TeamSkeet | Harry Potter Goblet Of Fire 2005 Hindi | Team mesmerize | lightroom 32 bit torrent | nomad audiobook | The Man Who Fell to Earth 1976 iNTERNAL BDRip x264 | holed gia anal |