Quick Browse
Movies
TV shows
Music
Games
Applications
Anime
Other
Facebook
Advertising

Friends
Torrent Download
Movie4u
1337x.to
Torrent Downloads




Verified torrent Tower Heist 2011 720p BRRip XviD AC3-26k


    Seeders : 1      Leechers : 0
Hash :5F430F94E5C82E3CAFF6366AABF012BD32503575
Added :1 Year+ by memory100Verified torrent uploader in Movies
Size :2.67 GB
Stream :WATCH ONLINE @ Movie4u


Tower Heist 2011 720p BRRip XviD AC3-26k
Free and Fast Download with Usenet 300GB+ free







Trackers List

Tracker NameLast CheckStatusSeedersLeechers




Torrent File Content (13 files)


Tower Heist 2011 720p BRRip XviD AC3-26k
     1.png -
811.4 KB

     2.png -
638.52 KB

     26k nfo.nfo -
3.54 KB

     3.png -
480.7 KB

     4.png -
492.49 KB

     HDSceneRG.txt -
115 bytes

     Torrent downloaded from Demonoid.me.txt -
46 bytes

     Torrent downloaded from rarbg.com.txt.txt -
0 bytes

     Tower Heist 2011 720p BRRip XviD AC3-26k.avi -
2.67 GB

     Tower Heist 2011 720p BRRip XviD AC3-26k.jpg -
134.55 KB

     YouTube Latest Releases And Archive.txt -
76 bytes

     att-networks.com.txt -
39 bytes

     sceneunderground.org.txt -
77 bytes



Description



http://img515.imageshack.us/img515/1561/towert.jpg

[code]

Tower Heist 2011 720p BRRip XviD AC3-26k

http://www.imdb.com/title/tt0471042/

Plot:
When a group of hard working guys find out they've fallen victim to a wealthy business
man's Ponzi scheme, they conspire to rob his high-rise residence.


Sources - Tower.Heist.2011.1080p.BluRay.X264-AMIABLE.....Thanks :P

Format : AVI
Format/Info : Audio Video Interleave
Format profile : OpenDML
File size : 2.67 GiB
Duration : 1h 44mn
Overall bit rate : 3 653 Kbps
Writing library : VirtualDub build 32839/release

Video
ID : 0
Format : MPEG-4 Visual
Format profile : Advanced [email protected]
Format settings, BVOP : 2
Format settings, QPel : No
Format settings, GMC : No warppoints
Format settings, Matrix : Default (H.263)
Codec ID : XVID
Codec ID/Hint : XviD
Duration : 1h 44mn
Bit rate : 3 001 Kbps
Width : 1 280 pixels
Height : 528 pixels
Display aspect ratio : 2.40:1
Frame rate : 23.976 fps
Color space : YUV
Chroma subsampling : 4:2:0
Bit depth : 8 bits
Scan type : Progressive
Compression mode : Lossy
Bits/(Pixel*Frame) : 0.185
Stream size : 2.19 GiB (82%)
Writing library : XviD 1.2.1 (UTC 2008-12-04)

Audio
ID : 1
Format : AC-3
Format/Info : Audio Coding 3
Mode extension : CM (complete main)
Codec ID : 2000
Duration : 1h 44mn
Bit rate mode : Constant
Bit rate : 640 Kbps
Channel(s) : 6 channels
Channel positions : Front: L C R, Side: L R, LFE
Sampling rate : 48.0 KHz
Bit depth : 16 bits
Compression mode : Lossy
Stream size : 479 MiB (18%)
Alignment : Split accross interleaves
Interleave, duration : 42 ms (1.00 video frame)
Interleave, preload duration : 500 ms


Notes -

Did my thing..turned out real nice...enjoy

[/code]

Screens:
http://i.imgur.com/2Ua9k.jpg

http://i.imgur.com/1xQS1.png

http://img41.imageshack.us/img41/3323/51030903.png

http://img706.imageshack.us/img706/5876/75373270.png

http://img214.imageshack.us/img214/9364/towerheist2011720pbrripk.jpg


Alternative screens:
http://www.hotimg.com/image/bjXsEmc
http://dippic.com/8hpdbiygsdlt
http://imgdepot.org/show/20120311/2/809162_2.png
http://www.imageporter.com/em6ur32vtx5l/4.png

Greetz:
Xtreme Encode|FYA|ILLUMANTI|CM8|RX|VISI​ON|HDSCENE|xTriLL|DTRG|CRYS|REMIX​HD|BIDA|RX|REFILL|INSPiRAL|SIC|
|HO​PE|Anonymous|GooN
To all the people who have helped me you know who you are

Anything to offer email us @: [email protected]


http://img851.imageshack.us/img851/5503/26ks.jpg

Thank you smallz for banner!

Related torrents

Torrent NameAddedSizeSeedLeechHealth
Verified torrent
1 Year+ - in Movies2.58 GB10
Verified torrent
1 Year+ - in Movies1.85 GB10
7 months ago - in Movies3.23 GB00
1 Year+ - in Movies2.92 GB012
1 Year+ - in Movies3.04 GB113

Comments (0 Comments)




Please login or create a FREE account to post comments

Latest Searches

| max and catalina | suit season 5 episode 15 | mydirtymaid samantha bell big booty latina maid gets piped 14 02 16 mp4 | Melissa Etheridge Josh Kelley | Sarah Banks Young Adventures 2 | The Actor 2014 | wiz khalifa ft Ghost | jim gaffigan obsessed 2014 web dl xvid ac3 rarbg | Donnie Darko 2001 REMASTERED DC 1080p BluRay 6CH 2 5GB ShAaNiG | jism ki |