Quick Browse
Movies
TV shows
Music
Games
Applications
Anime
Other
Facebook
Advertising

Friends
Torrent Download
Movie4u
1337x.to
Torrent Downloads




Verified torrent Tower Heist 2011 DVDRIP XViD AC3-26K


    Seeders : 0      Leechers : 0
Hash :41CA03B1463A5B8DBB6F03FA115A24D344705698
Added :1 Year+ by memory100Verified torrent uploader in Movies
Size :1.61 GB
Stream :WATCH ONLINE @ Movie4u


Tower Heist 2011 DVDRIP XViD AC3-26K
Free and Fast Download with Usenet 300GB+ free







Trackers List

Tracker NameLast CheckStatusSeedersLeechers




Torrent File Content (7 files)


Tower Heist 2011 DVDRIP XViD AC3-26K
     HDSceneRG.txt -
115 bytes

     Torrent downloaded from Demonoid.me.txt -
46 bytes

     Tower Heist 2011 DVDRIP XViD AC3-26K.avi -
1.57 GB

     Tower Heist 2011 DVDRIP XViD AC3-26K.nfo -
3.29 KB

     att-networks.com.txt -
39 bytes

     sample.avi -
34.62 MB

     sceneunderground.org.txt -
77 bytes



Description



http://img4.imageshack.us/img4/9679/towerhiest.jpg

[code]
Tower Heist 2011 DVDRIP XViD AC3-26K

Imdb:
http://www.imdb.com/title/tt0471042/

Plot:
When a group of hard working guys find out they've fallen victim to a wealthy business man's Ponzi scheme, they conspire to rob his high-rise residence.

Sources:
THNXS M8! subs included!

Notes:
enjoy!

Greetz:
Xtreme Encode|FYA|ILLUMANTI|CM8|RX|VISION|HDSCENE|NIGHTMAREZ|xTriLL|DTRG|CRYS|REMIXHD|BIDA|RX|REFILL|INSPiRAL|SIC|ZOMBIESZ|HOPE|Anonymous|GooN
To all the people who have helped me :P you know who you are

Anything to offer email us @: [email protected]

Video
ID : 0
Format : MPEG-4 Visual
Format profile : Advanced [email protected]
Format settings, BVOP : 2
Format settings, QPel : No
Format settings, GMC : No warppoints
Format settings, Matrix : Default (H.263)
Codec ID : XVID
Codec ID/Hint : XviD
Duration : 1h 44mn
Bit rate : 1 697 Kbps
Width : 720 pixels
Height : 306 pixels
Display aspect ratio : 2.35:1
Frame rate : 23.976 fps
Color space : YUV
Chroma subsampling : 4:2:0
Bit depth : 8 bits
Scan type : Progressive
Compression mode : Lossy
Bits/(Pixel*Frame) : 0.321
Stream size : 1.24 GiB (79%)
Writing library : XviD 63

Audio
ID : 1
Format : AC-3
Format/Info : Audio Coding 3
Mode extension : CM (complete main)
Codec ID : 2000
Duration : 1h 44mn
Source duration : 1h 44mn
Bit rate mode : Constant
Bit rate : 448 Kbps
Channel(s) : 6 channels
Channel positions : Front: L C R, Side: L R, LFE
Sampling rate : 48.0 KHz
Bit depth : 16 bits
Compression mode : Lossy
Stream size : 335 MiB (21%)
Alignment : Aligned on interleaves
Interleave, duration : 42 ms (1.00 video frame)
Language : English

[/code]
Screens:
http://img808.imageshack.us/img808/6505/vlcsnap2012020917h12m32.png

http://img706.imageshack.us/img706/6958/vlcsnap2012020917h12m38.png

http://img140.imageshack.us/img140/5758/vlcsnap2012020917h12m43.png

http://img560.imageshack.us/img560/4646/vlcsnap2012020917h12m47.png

http://img94.imageshack.us/img94/7851/vlcsnap2012020917h12m53.png


http://img851.imageshack.us/img851/5503/26ks.jpg

Thank you smallz for banner!

Related torrents

Torrent NameAddedSizeSeedLeechHealth
7 months ago - in Movies1.44 GB00
1 Year+ - in Movies8.13 GB00
1 Year+ - in Movies1.59 GB01
1 Year+ - in Movies1.44 GB020
1 Year+ - in Movies1.44 GB00

Comments (0 Comments)




Please login or create a FREE account to post comments

Latest Searches

| decker 2016 | Nubiles Casting Holly Michaels Lia Ezra mp4 | Pro Evolution Soccer 2017 v 1 0 1 0 0 | mp3 2016 november | pretty little 6 complete | Bob Marley Is this Love | Sully 2016 1080p web | future back to life | The Man With The Golden Gun dual | nme march 9 2013 |