Quick Browse
Movies
TV shows
Music
Games
Applications
Anime
Other
Facebook
Friends
Torrent Download
Movie4u
1337x.to
Torrent Downloads

Verified torrent TrTd_CREW Ubaldo Terzani Horror Show 2010 ITA DVDRip.torrent


    Seeders : 1      Leechers : 9

Trackers List

Tracker NameLast CheckStatusSeedersLeechers




Torrent File Content (1 file)


     TrTd_CREW Ubaldo Terzani Horror Show 2010 ITA DVDRip.avi -
755.56 MB



Description



http://www.torrented.org/public/phpbb3/images/presenta.png

http://www.uptiki.com/images/ltlaxmm4iupjr3jx6m5v.png


http://www.torrented.org/public/phpbb3/images/info%20film.png

Titolo Originale: UBALDO TERZANI HORROR SHOW
Regia: Gabriele Albanesi
Interpreti: Giuseppe Soleri, Paolo Sassanelli, Laura Gigante
Durata: h 1.23
Nazionalità: Italia 2011
Genere: horror
Dimensione:755 MB


http://www.torrented.org/public/phpbb3/images/trama.png

Alessio Rinaldi, un giovane regista di 25 anni, riceve l’incarico da parte di un produttore di scrivere la sceneggiatura del suo primo film insieme ad Ubaldo Terzani, affermato scrittore di romanzi horror. Alessio si trasferisce così in casa di Terzani per iniziare la collaborazione. Tra l’allievo entusiasta e il suo anziano maestro si instaura presto un rapporto di dipendenza e plagio della personalità: Ubaldo Terzani rivela progressivamente il suo lato oscuro, e Alessio si lascia trascinare in un abisso sempre più disperato di incubi e follia. Perché c’è un motivo se i bestsellers di Terzani riescono a spaventare sul serio. Alessio scoprirà che la realtà sa essere inaspettatamente più terrificante di qualsiasi invenzione letteraria e dovrà lottare con tutte le sue forze per liberarsi dalle…fauci di Ubaldo Terzani.

http://www.torrented.org/public/phpbb3/images/screenshot.png

http://www.uptiki.com/images/5zwprl8wux4h0h4cmbai.jpg


General
Complete name : TrTd_CREW Ubaldo Terzani Horror Show 2010 ITA DVDRip.avi
Format : AVI
Format/Info : Audio Video Interleave
File size : 756 MiB
Duration : 1h 22mn
Overall bit rate : 1 273 Kbps
Movie name : Ubaldo Terziani Horror-TrTd_CREW
Director : AsPiDe
Recorded date : 2010
Writing application : Lavf52.106.0
[color=yellow]Copyright : www.torrented.org[/color]
Comment : Audio & Video By TrTd_CREW

Video
ID : 0
Format : MPEG-4 Visual
Format profile : Simple@L3
Format settings, BVOP : No
Format settings, QPel : No
Format settings, GMC : No warppoints
Format settings, Matrix : Default (H.263)
Codec ID : XVID
Codec ID/Hint : XviD
Duration : 1h 22mn
Bit rate : 1 007 Kbps
Width : 688 pixels
Height : 304 pixels
Display aspect ratio : 1.857
Frame rate : 25.000 fps
Resolution : 24 bits
Colorimetry : 4:2:0
Scan type : Progressive
Bits/(Pixel*Frame) : 0.193
Stream size : 597 MiB (79%)
Writing library : XviD 63

Audio
ID : 1
Format : AC-3
Format/Info : Audio Coding 3
Codec ID : 2000
Duration : 1h 22mn
Bit rate mode : Constant
Bit rate : 256 Kbps
Channel(s) : 2 channels
Channel positions : L R
Sampling rate : 44.1 KHz
Resolution : 16 bits
Stream size : 152 MiB (20%)
Alignment : Aligned on interleaves
Interleave, duration : 35 ms (0.87 video frame)
Interleave, preload duration : 34 ms



Related torrents

Torrent NameAddedSizeSeedLeechHealth
1 Year+ - in Movies1.37 GB1251
1 Year+ - in Movies790.47 MB00
1 Year+ - in Movies776.16 MB228
1 Year+ - in Movies709.69 MB00
1 Year+ - in Movies4.38 GB10

Comments (0 Comments)




Please login or create a FREE account to post comments

Latest Searches

| rival schools evolution | islam history armstrong | HTH | Mac file | hegre american | stardock start8 1 0 crack | Wynton Marsalis Unforgivable Blackness | Les McCann in new york | windows 1 photos | t walk |