Quick Browse
Movies
TV shows
Music
Games
Applications
Anime
Other
Facebook
Advertising

Friends
Torrent Download
Movie4u
1337x.to
Torrent Downloads




Verified torrent Transformers 3-Dark of the Moon 2011 TS READNFO XViD - IMAGiNE [NO RAR]


    Seeders : 0      Leechers : 0

Trackers List

Tracker NameLast CheckStatusSeedersLeechers




Torrent File Content (13 files)


Transformers 3-Dark of the Moon 2011 TS READNFO XViD - IMAGiNE [NO RAR]
     Budget seedboxs.txt -
44 bytes

     dreamthe.net.txt -
93 bytes

     IMAGINE.nfo -
4.74 KB

     northernwarriors.net.txt -
137 bytes

     sceneunderground.org.txt -
77 bytes

     transformer 2011 poster.jpg -
15.51 KB

     Transformers 3-Dark of the Moon 2011 TS READNFO XViD - IMAGiNE [NO RAR].avi -
895.43 MB

     Transformers 3-Dark of the Moon 2011 TS READNFO XViD - IMAGiNE [NO RAR].nfo -
13.08 KB

     vlcsnap-00001.png.jpg -
50.89 KB

     vlcsnap-00002.png.jpg -
55.12 KB

     vlcsnap-00003.png.jpg -
51.02 KB

     vlcsnap-00004.png.jpg -
62.48 KB

     vlcsnap-00005.png.jpg -
80.01 KB



Description



File:Transformers Dark of the Moon 2011
All details are here:

The Autobots learn of a Cybertronian spacecraft hidden on the Moon, and race against the Decepticons to reach it and learn its secrets, which could turn the tide in the Transformers' final battle.
---------------------------------------------------------------------
Action | Adventure | Sci-Fi
Format | AVI Language | ENGLISH
Source | DVD PAL Subs |
---------------------------------------------------------------------
- Video
ID : 0
Format : MPEG-4 Visual
Format profile : Advanced [email protected]
Format settings, BVOP : Yes
Format settings, QPel : No
Format settings, GMC : No warppoints
Format settings, Matrix : Default (H.263)
Muxing mode : Packed bitstream
Codec ID : XVID
Codec ID/Hint : XviD
Bit rate : 1 345 Kbps
Width : 720 pixels
Height : 314 pixels
Display aspect ratio : 2.25:1
Frame rate : 29.970 fps
Color space : YUV
Chroma subsampling : 4:2:0
Bit depth : 8 bits
Scan type : Progressive
Compression mode : Lossy
Bits/(Pixel*Frame) : 0.198
Stream size : 1.19 GiB (87%)
Writing library : XviD 1.1.0 (UTC 2005-11-22)
- Audio
ID : 1
Format : AC-3
Format/Info : Audio Coding 3
Mode extension : CM (complete main)
Codec ID : 2000
Bit rate mode : Constant
Bit rate : 192 Kbps
Channel(s) : 2 channels
Channel positions : Front: L R
Sampling rate : 48.0 KHz
Bit depth : 16 bits
Compression mode : Lossy
Stream size : 175 MiB (12%)
Alignment : Aligned on interleaves
Interleave, duration : 33 ms (1.00 video frame)
Interleave, preload duration : 512 ms

- Greets
Greets to | MAX | IMAGiNE | PrisM | DiGiTAL iNK |
-------------------------------------------------------------------
Please share....Dont hit and run...Seed it back at least once.
Of course, if you want to seed it back more than once, that would be ok too
-------------------------------------------------------------------
- Notes
Im looking for anybody who Wants to Supply
Direct or Line Audio. Pre Released R5s,
Screeners, NTSC or PAL Pre Retail DVDs
or Anything else Usefull;
Bit of blurry but its good worth downloading

enjoy

Screens:
http://www.grinshare.com/img/G8FH9L.jpg

http://www.grinshare.com/img/YKBHNV.jpg

http://www.grinshare.com/img/HQHUR2.jpg

http://www.grinshare.com/img/P2FU85.jpg

http://www.grinshare.com/img/YAQCET.jpg

http://www.grinshare.com/img/UNVZWZ.jpg


------------------------------------------------------------

Related torrents

Torrent NameAddedSizeSeedLeechHealth
1 Year+ - in Movies986.28 MB00
1 Year+ - in Movies2.43 GB00
1 Year+ - in Movies2.44 GB012
Verified torrent
1 Year+ - in Movies2.44 GB00
Verified torrent
1 Year+ - in Movies1.36 GB10

Comments (9 Comments)




joe808
--1

Added 1 Year+
this is fake! stupid uploaders!
Xergon73V2
» Voted Good Voted Good for this torrent for this torrent

Added 1 Year+
same here in the start drives me in some stupid site but when i sign up for the offer it brings me back to where it came from then it plays well thanks for the upload will wait for the MAX thanks anyway mate
senthilkumar07

Added 1 Year+
its fake, do not download this shit,
senthilkumar07

Added 1 Year+
what is the site, we got nothing
robyrs
» Torrent Uploader Torrent Uploader

Added 1 Year+
the site offers you email and conditions "NOT A TROJAN" im giving you my least time for now.enjoy everyone Rob;)
MalhichTcab
» Voted Good Voted Good for this torrent for this torrent

Added 1 Year+
thanks for the info rob movie plays nice...
russeledson
» Voted Good Voted Good for this torrent for this torrent

Added 1 Year+
nice movie.bit dark copy.thanks anyway
cornwin
» Voted Good Voted Good for this torrent for this torrent

Added 1 Year+
ok real deal here thanks!
cornwin
» Voted Good Voted Good for this torrent for this torrent

Added 1 Year+
comedy movie cool;)
Please login or create a FREE account to post comments

Latest Searches

| meek mill flamers | s like it big summer | Premium Woocommerce Extensions | peter jackson xbox | WinRAR 5 20 Final x86 x64 Incl Key Fully Cracked | love me like you video | ass with insatiable blonde | how to get away with murder season 3 episode 1 4 | wrld orbit feat richard caddock | beauty american psycho |