Quick Browse
Movies
TV shows
Music
Games
Applications
Anime
Other
Facebook
Advertising

Friends
Torrent Download
Movie4u
1337x.to
Torrent Downloads




Verified torrent Trespass 2011 DVDRip XviD AC3-26K


    Seeders : 2      Leechers : 1
Hash :870D04BB2F88082FF1969BDEA0ADC70C68C58FC5
Added :1 Year+ by memory100Verified torrent uploader in Movies
Size :1.22 GB
Stream :WATCH ONLINE @ Movie4u


Trespass 2011 DVDRip XviD AC3-26K
Free and Fast Download with Usenet 300GB+ free







Trackers List

Tracker NameLast CheckStatusSeedersLeechers




Torrent File Content (11 files)


Trespass 2011 DVDRip XviD AC3-26K
     att-networks.com.txt -
39 bytes

     HDSceneRG.txt -
115 bytes

     sample.avi -
26.34 MB

     sceneunderground.org.txt -
77 bytes

     Torrent downloaded from Demonoid.me.txt -
46 bytes

     Torrent downloaded from rarbg.com.txt.txt -
0 bytes

     Trespass 2011 DVDRip XviD AC3-26K.avi -
1.19 GB

     Trespass 2011 DVDRip XviD AC3-26K.idx -
65.62 KB

     Trespass 2011 DVDRip XviD AC3-26K.nfo -
3.27 KB

     Trespass 2011 DVDRip XviD AC3-26K.sub -
6.15 MB

     YouTube Latest Releases And Archive.txt -
80 bytes



Description



http://img28.imageshack.us/img28/7129/trespasse.jpg

[code]
Trespass 2011 DVDRip XviD AC3-26K

Imdb:
http://www.imdb.com/title/tt1674784/

Plot:
As they're held for ransom, a husband and wife's predicament grows more dire amid the discovery of

betrayal and deception.

Sources:
DVDR-LEGEND THNXS
SUBS INCLUDED...
Notes:
ENJOY

Greetz:
Xtreme Encode|FYA|ILLUMANTI|CM8|RX|VISION|HDSCENE|NIGHTMAREZ|xTriLL|DTRG|CRYS|REMIXHD|BIDA|RX|REFILL|

INSPiRAL|SIC|ZOMBIESZ|HOPE|Anonymous|GooN
To all the people who have helped me :P you know who you are

Anything to offer email us @: [email protected]

Video
ID : 0
Format : MPEG-4 Visual
Format profile : Advanced [email protected]
Format settings, BVOP : 2
Format settings, QPel : No
Format settings, GMC : No warppoints
Format settings, Matrix : Default (H.263)
Muxing mode : Packed bitstream
Codec ID : XVID
Codec ID/Hint : XviD
Duration : 1h 26mn
Bit rate : 1 501 Kbps
Width : 720 pixels
Height : 300 pixels
Display aspect ratio : 2.40:1
Frame rate : 25.000 fps
Color space : YUV
Chroma subsampling : 4:2:0
Bit depth : 8 bits
Scan type : Progressive
Compression mode : Lossy
Bits/(Pixel*Frame) : 0.278
Stream size : 934 MiB (76%)
Writing library : XviD 1.2.1 (UTC 2008-12-04)

Audio
ID : 1
Format : AC-3
Format/Info : Audio Coding 3
Mode extension : CM (complete main)
Codec ID : 2000
Duration : 1h 26mn
Bit rate mode : Constant
Bit rate : 448 Kbps
Channel(s) : 6 channels
Channel positions : Front: L C R, Side: L R, LFE
Sampling rate : 48.0 KHz
Bit depth : 16 bits
Compression mode : Lossy
Stream size : 279 MiB (23%)
Alignment : Aligned on interleaves
Interleave, duration : 32 ms (0.80 video frame)


[/code]
Screens:
http://i.imgur.com/BYte5.png

http://i.imgur.com/4aFkz.png

http://img109.imageshack.us/img109/9878/vlcsnap2012030223h00m20.png

http://img811.imageshack.us/img811/7325/vlcsnap2012030223h00m31.png

http://img831.imageshack.us/img831/382/vlcsnap2012030223h00m38.png

http://img848.imageshack.us/img848/3887/vlcsnap2012030223h00m44.png


http://img851.imageshack.us/img851/5503/26ks.jpg

Thank you smallz for banner!

Related torrents

Torrent NameAddedSizeSeedLeechHealth
1 Year+ - in Movies1.39 GB00
Verified torrent
1 Year+ - in Movies1.37 GB00
1 Year+ - in Movies1.36 GB00
1 Year+ - in Movies1.37 GB00
1 Year+ - in Movies1.44 GB01

Comments (0 Comments)




Please login or create a FREE account to post comments

Latest Searches

| dexter s03e12 hdtv xvid lol rar | Stevie nicks live rhiannon | PS2 resident evil multi | Mission Impossible games | ac3 rarbg 2013 | divx 3d sbs | young seka s | Sexually Explicit Breast Exam | czechCasting 16 12 06 | 10G |