Quick Browse
Movies
TV shows
Music
Games
Applications
Anime
Other
Facebook
Advertising

Friends
Torrent Download
Movie4u
1337x.to
Torrent Downloads




Verified torrent Trey Songz - Can't Be Friends [KingPinVideos]


    Seeders : 326      Leechers : 13
Hash :901124D578AD9ECDE546E17DA7E4D993A67FD2F8
Added :1 Year+ by KingPinVerified torrent uploader in Music - Music Videos
Size :79.45 MB
Stream :WATCH ONLINE @ Movie4u


Trey Songz - Can't Be Friends [KingPinVideos]
Free and Fast Download with Usenet 300GB+ free







Trackers List

Tracker NameLast CheckStatusSeedersLeechers




Torrent File Content (5 files)


Trey Songz - Cant Be Friends [KingPinVideos]
     Trey Songz - Cant Be Friends [KingPinVideos].mpg -
79.44 MB

     Trey Songz - Cant Be Friends [KingPinVideos].nfo -
1.84 KB

     Trey Songz - Cant Be Friends [KingPinVideos].txt -
1.63 KB

     Torrent downloaded from Demonoid.com.txt -
47 bytes

     Torrent Downloaded from Limetorrents.com.txt -
46 bytes



Description



http://img16.imageshack.us/img16/5553/treysongzcantbefreinds.png


http://img62.imageshack.us/img62/9532/treysongzcantbefreinds2.png


[code]General
Complete name : Trey Songz - Cant Be Friends[KingPinVideos].mpg
Format : MPEG-PS
File size : 79.4 MiB
Duration : 3mn 53s
Overall bit rate : 2 856 Kbps
Writing library : encoded by TMPGEnc 4.0 XPress Version. 4.7.4.299

Video
ID : 224 (0xE0)
Format : MPEG Video
Format version : Version 1
Format settings, BVOP : Yes
Format settings, Matrix : Default
Duration : 3mn 53s
Bit rate mode : Constant
Bit rate : 2 615 Kbps
Nominal bit rate : 2 700 Kbps
Width : 384 pixels
Height : 208 pixels
Display aspect ratio : 16:9
Frame rate : 29.970 fps
Resolution : 8 bits
Scan type : Progressive
Bits/(Pixel*Frame) : 1.092
Stream size : 72.7 MiB (92%)
Writing library : TMPGEnc XPress 4.7.4.299

Audio
ID : 192 (0xC0)
Format : MPEG Audio
Format version : Version 1
Format profile : Layer 2
Duration : 3mn 53s
Bit rate mode : Constant
Bit rate : 128 Kbps
Channel(s) : 2 channels
Sampling rate : 48.0 KHz
Stream size : 3.56 MiB (4%)[/code]

Related torrents

Torrent NameAddedSizeSeedLeechHealth
1 Year+ - in Music7.23 MB00
1 Year+ - in Music230.22 MB00
1 Year+ - in Movies116.7 MB00
1 Year+ - in Movies65.53 MB10
1 Year+ - in Other1.8 MB00

Comments (0 Comments)




Please login or create a FREE account to post comments

Latest Searches

| Dir en Grey SUSTAIN THE UNTRUTH | donald b the big | The Disappointments Room 2016 DVDRip XviD AC3 EVO | creativelive template | MADAME BONAPARTE | in depot | darwin strikes back defending the science of intelligent design thomas woodward | mannie fresh ft T I | hunger force s11e05 | bernard cornwell epub saxon |