Quick Browse
Movies
TV shows
Music
Games
Applications
Anime
Other
Facebook
Advertising

Friends
Torrent Download
Movie4u
1337x.to
Torrent Downloads




Verified torrent Trishul (1978) Hindi DvD - 2CD - Rip - By - Punjabi_Boy


    Seeders : 0      Leechers : 0

Trackers List

Tracker NameLast CheckStatusSeedersLeechers




Torrent File Content (1 file)


Trishul (1978) DvD - 2CD - Rip - By - Punjabi_Boy
     Trishul (1978) DvD - 2CD - Rip - By - Punjabi_Boy.avi -
1.37 GB



Description



[color=red][font=Georgia]
General
Ripper : Rahul
Complete name : Trishul (1978)
Format : AVI
Format/Info : Audio Video Interleave
File size : 1.37 GiB
Duration : 2h 52mn
Overall bit rate : 1 139 Kbps
Writing application : VirtualDubMod 1.5.4.1 (build 2178/release)
Writing library : VirtualDubMod build 2178/release

Video
ID : 0
Format : MPEG-4 Visual
Format profile : Advanced [email protected]
Format settings, BVOP : Yes
Format settings, QPel : No
Format settings, GMC : No warppoints
Format settings, Matrix : Custom
Codec ID : XVID
Codec ID/Hint : XviD
Duration : 2h 52mn
Bit rate : 941 Kbps
Width : 512 pixels
Height : 384 pixels
Display aspect ratio : 4:3
Frame rate : 23.976 fps
Color space : YUV
Chroma subsampling : 4:2:0
Bit depth : 8 bits
Scan type : Progressive
Bits/(Pixel*Frame) : 0.200
Stream size : 1.13 GiB (83%)
Writing library : XviD 1.2.1 (UTC 2008-12-04)

Audio
ID : 1
Format : AC-3
Format/Info : Audio Coding 3
Mode extension : CM (complete main)
Codec ID : 2000
Duration : 2h 52mn
Bit rate mode : Constant
Bit rate : 192 Kbps
Channel(s) : 2 channels
Channel positions : Front: L R
Sampling rate : 48.0 KHz
Bit depth : 16 bits
Video delay : 31ms
Stream size : 236 MiB (17%
[/font][/color]

http://img94.imageshack.us/img94/3113/trishul1978dvd2cdripbyp.jpg

Related torrents

Torrent NameAddedSizeSeedLeechHealth
Verified torrent
1 Year+ - in Movies1.37 GB219
Verified torrent
1 Year+ - in Movies1.26 GB38
Verified torrent
1 Year+ - in Movies1.37 GB00
Verified torrent
1 Year+ - in Movies1.42 GB02
1 Year+ - in Movies1.36 GB25

Comments (0 Comments)




Please login or create a FREE account to post comments

Latest Searches

| The KMPlayer 3 9 1 130 RePack by CUTA 2 4 | stink pussy | gotham s03e10 ettv fum | Thomas And Friends The Great Race 2016 DVDRip x264 GHOULS PRiME | the take d v d 2016 | childish Gambino album full | crack replay media catcher 5 | drake talk a | Double Drill Team 5 | minecraft 1 0 0 x ray |