Quick Browse
Movies
TV shows
Music
Games
Applications
Anime
Other
Facebook
Advertising

Friends
Torrent Download
Movie4u
1337x.to
Torrent Downloads




Tron - 1982 DVDrip-ENG oddball


    Seeders : 10      Leechers : 4
Hash :E67A570D44F75DDF5F036ADB3497A4D4CF2D26D4
Added :1 Year+ in Movies
Size :977.84 MB
Stream :WATCH ONLINE @ Movie4u


Tron - 1982 DVDrip-ENG oddball
Free and Fast Download with Usenet 300GB+ free







Trackers List

Tracker NameLast CheckStatusSeedersLeechers




Torrent File Content (3 files)


Tron - 1982 DVDrip-ENG oddball
     Tron - 1982 DVDrip-ENG www.oddball-links.com.avi -
977.83 MB

     Tron - Cover.jpg -
2.05 KB

     Read Me.txt -
561 bytes



Description



`                          888      888 888               888 888 
888 888 888 888 888
888 888 888 888 888
.d88b. .d88888 .d88888 88888b. 8888b. 888 888
d88""88b d88" 888 d88" 888 888 "88b "88b 888 888
888 888 888 888 888 888 888 888 .d888888 888 888
Y88..88P Y88b 888 Y88b 888 888 d88P 888 888 888 888
"Y88P" "Y88888 "Y88888 88888P" "Y888888 888 888
-links.com


Tron is a 1982 American science fiction film by Walt Disney Pictures. It stars Jeff Bridges as Kevin Flynn (and his program counterpart inside the electronic world, Clu), Bruce Boxleitner as Tron and his User Alan Bradley, Cindy Morgan as Yori and Dr. Lora Baines, and Dan Shor as Ram. David Warner plays all three main antagonists: the program Sark, his User Ed Dillinger, and the voice of the Master Control Program. It was written and directed by Steven Lisberger. Tron has a distinctive visual style, as it was one of the first films from a major studio to use computer graphics extensively.

+-+-+-+-+
|c|a|s|t|
+-+-+-+-+

Actor Role

Jeff Bridges ..................... Kevin Flynn/Clu
Bruce Boxleitner ................. Alan Bradley/Tron
David Warner ..................... Ed Dillinger/Sark
Cindy Morgan ..................... Dr. Lora Baines/Yori
Barnard Hughes ................... Dr. Walter Gibbs/Dumont
Dan Shor ......................... Ram
Peter Jurasik .................... Crom


General
Complete name : Tron
Format : AVI
Format/Info : Audio Video Interleave
File size : 978 MiB
Duration : 1h 31mn
Overall bit rate : 1 489 Kbps

Video
Format : MPEG-4 Visual
Format profile : Streaming [email protected]
Format settings, BVOP : Yes
Format settings, QPel : No
Format settings, GMC : No warppoints
Format settings, Matrix : Default
Muxing mode : Packed bitstream
Codec ID : XVID
Codec ID/Hint : XviD
Duration : 1h 31mn
Bit rate : 1 285 Kbps
Width : 1 024 pixels
Height : 582 pixels
Display aspect ratio : 16/9
Frame rate : 29.970 fps
Resolution : 24 bits
Colorimetry : 4:2:0
Scan type : Progressive
Bits/(Pixel*Frame) : 0.072
Stream size : 844 MiB (86%)
Writing library : XviD 1.2.1 (UTC 2008-12-04)

Audio
Format : MPEG Audio
Format version : Version 1
Format profile : Layer 3
Codec ID : 55
Codec ID/Hint : MP3
Duration : 1h 31mn
Bit rate mode : Constant
Bit rate : 192 Kbps
Channel(s) : 2 channels
Sampling rate : 44.1 KHz
Resolution : 16 bits
Video delay : 26ms
Stream size : 126 MiB (13%)
Alignment : Split accross interleaves
Interleave, duration : 33 ms (1.00 video frame)
Title : Audio Stream
Writing library : LAME3.92


For more oddball torrents http://thepiratebay.org/user/oddball-links ` Please seed after downloading ` :::=== :::===== :::===== :::==== :::= === :::==== :::====
::: ::: ::: ::: === :::===== ::: === :::====
===== ====== ====== === === ======== === === ===
=== === === === === === ==== === === ===
====== ======== ======== ======= === === ====== ===

:::===== :::==== :::===== :::===== :::====
::: ::: === ::: ::: ::: ===
=== ===== ======= ====== ====== === ===
=== === === === === === === ===
======= === === ======== ======== =======

Related torrents

Torrent NameAddedSizeSeedLeechHealth
2 days ago - in Movies812.74 MB00
2 days ago - in Movies812.74 MB00
Last Month - in Movies4.05 GB00
4 months ago - in Movies1.68 GB00
1 Year+ - in Movies2.17 GB11

Comments (0 Comments)




Please login or create a FREE account to post comments

Latest Searches

| Alegra E177 | destiny jodi | MMPNetwork Shrima Malati | ice age collision course DVDR | bullet for my valentine f | Driver Pack Solution 12 3 Final upto 17 03 2012 Windows7 XP | hallmark june in january | Celina hot | XMIX | ROMEO JULIET HD |