Quick Browse
Movies
TV shows
Music
Games
Applications
Anime
Other
Facebook
Advertising

Friends
Torrent Download
Movie4u
1337x.to
Torrent Downloads




Verified torrent True Grit (2010) DVDRip XviD-MAXSPEED


    Seeders : 0      Leechers : 0
Hash :A85739D5C2149A50D800D0530784B8EAFEA17256
Added :1 Year+ by piratepediaVerified torrent uploader in Movies
Size :1.22 GB
Stream :WATCH ONLINE @ Movie4u


True Grit (2010) DVDRip XviD-MAXSPEED
Free and Fast Download with Usenet 300GB+ free







Trackers List

Tracker NameLast CheckStatusSeedersLeechers




Torrent File Content (8 files)


True Grit (2010) DVDRip XviD-MAXSPEED
     True Grit (2010) DVDRip XviD-MAXSPEED www.torentz.3xforum.ro.avi -
1.22 GB

     sample.avi -
5.6 MB

     screencaps.jpeg -
556.55 KB

     True Grit (2010) DVDRip XviD-MAXSPEED.nfo -
2.63 KB

     Torrent downloaded from Demonoid.me.txt -
46 bytes

     Torrent downloaded from Extratorrent.com.txt -
40 bytes

     Torrent downloaded from Rarbg.com.txt -
33 bytes

     Torrent downloaded from h33t.com.txt -
32 bytes



Description



http://leetleech.org/images/17696665309860619205.jpg


Screens:

http://leetleech.org/images/31814849274918062299.jpg

http://leetleech.org/images/50818578943931515518.jpg

http://leetleech.org/images/27678184938394999556.jpg

http://leetleech.org/images/46546405512454009552.jpg


Alternative:

[code]http://www.postimg.com/image/38000/photo-37120.jpg
http://www.postimg.com/image/38000/photo-37121.jpg
http://www.postimg.com/image/38000/photo-37122.jpg
http://www.postimg.com/image/38000/photo-37123.jpg[/code]

ScreenCaps:

http://www.postimg.com/38000/photo-37125.jpg


[code]True Grit (2010) DVDRip XviD-MAXSPEED
Format : AVI
Format/Info : Audio Video Interleave
Format profile : OpenDML
File size : 1.22 GiB
Duration : 1h 50mn
Overall bit rate : 1 579 Kbps
Writing application : VirtualDubMod 1.5.10.2 (build 2542/release)
Writing library : VirtualDubMod build 2542/release
Original source form : MAX TORRENTZ
Copyright : SIGISMUNT

Video
ID : 0
Format : MPEG-4 Visual
Format profile : [email protected]
Format settings, BVOP : Yes
Format settings, QPel : No
Format settings, GMC : No warppoints
Format settings, Matrix : Custom
Codec ID : XVID
Codec ID/Hint : XviD
Duration : 1h 50mn
Bit rate : 1 126 Kbps
Width : 720 pixels
Height : 304 pixels
Display aspect ratio : 2.35:1
Frame rate : 23.976 fps
Resolution : 24 bits
Colorimetry : 4:2:0
Scan type : Progressive
Bits/(Pixel*Frame) : 0.215
Stream size : 889 MiB (71%)
Writing library : XviD 58

Audio
ID : 1
Format : AC-3
Format/Info : Audio Coding 3
Codec ID : 2000
Duration : 1h 50mn
Bit rate mode : Constant
Bit rate : 448 Kbps
Channel(s) : 6 channels
Channel positions : Front: L C R, Surround: L R, LFE
Sampling rate : 48.0 KHz
Stream size : 354 MiB (28%)
Alignment : Aligned on interleaves
Interleave, duration : 64 ms (1.53 video frames)
Interleave, preload duration : 192 ms

Source: DVD + AC3 original audio (perfect a/v/sync quality,sample included)
This torrent is not seedbox supported so please seed it to the MAX

How To Get Your Maxspeed (uTorrent)

Torrent Client - Preferences - Bandwidth - Number of connections - Set aprox. 500 for each
Torrent Client - Preferences - BiTorrent - Protocol Encryption - Forced
Bandwidth Allocation - High (Set download/upload limit - Unlimited)
Stop Other Active Torrents - Start downloading and wait for connections.
Enjoy and Seed for at least 1:1 ratio. Don't forget to say thanks/leave reviews.
Before downloading you should check/google search sample "release name""sample".
Greets to all actual/future p2p/scene QUALITY groups and affiliate websites.
Don't trust IMDb robot or bad ratings,always watch some trailers first.
Ignore stupid comments/fake/mislabeled/no-DVDrips/CAM/TS/RAR uploads.
Please spread this release/torrent to your friends/forums/etc.
If you need translation subs visit some subtitles sites.
Report if you see online streaming or other spam links.
Recommended movie player VLC PLAYER.[/code]

Related torrents

Torrent NameAddedSizeSeedLeechHealth
4 months ago - in Other1.13 GB00
Verified torrent
5 months ago - in Movies1.08 GB23175
5 months ago - in Movies1.96 GB00
7 months ago - in Movies1.85 GB00
1 Year+ - in Other2.17 GB10

Comments (1 comment)




b0g0r
» Downloaded this torrent Downloaded this torrent » Voted Good Voted Good for this torrent for this torrent

Added 1 Year+
good a7/v7
Please login or create a FREE account to post comments

Latest Searches

| dubturbo software | my son banged my wife 720p | Plus body | all sega genesis roms | nusrat fateh ali khan dr zeus 2012 immortal collection full album shaheryar bhatti | come together 2016 | roy clark music | Cayla L and Holly | 2012 2009 720p Telugu | Bull S01E08 |