Quick Browse
Movies
TV shows
Music
Games
Applications
Anime
Other
Facebook
Advertising

Friends
Torrent Download
Movie4u
1337x.to
Torrent Downloads




Verified torrent TuPac (Welcome To Death Row - DVD Plus Bonus) [Rare Release]


    Seeders : 0      Leechers : 9

Trackers List

Tracker NameLast CheckStatusSeedersLeechers




Torrent File Content (24 files)


TuPac (Welcome To Death Row - DVD Plus Bonus) [Rare Release]
    TuPac [Welcome To Death Row - DVD Plus Bonus]
          TuPac [Death Row Uncut] [DVD] [Very Rare]/TuPac (Death Row Uncut) [DVD]/VIDEO_TS/VIDEO_TS.BUP -
12 KB

          TuPac [Death Row Uncut] [DVD] [Very Rare]/TuPac (Death Row Uncut) [DVD]/VIDEO_TS/VIDEO_TS.IFO -
12 KB

          TuPac [Death Row Uncut] [DVD] [Very Rare]/TuPac (Death Row Uncut) [DVD]/VIDEO_TS/VIDEO_TS.VOB -
58 KB

          TuPac [Death Row Uncut] [DVD] [Very Rare]/TuPac (Death Row Uncut) [DVD]/VIDEO_TS/VTS_01_0.BUP -
78 KB

          TuPac [Death Row Uncut] [DVD] [Very Rare]/TuPac (Death Row Uncut) [DVD]/VIDEO_TS/VTS_01_0.IFO -
78 KB

          TuPac [Death Row Uncut] [DVD] [Very Rare]/TuPac (Death Row Uncut) [DVD]/VIDEO_TS/VTS_01_0.VOB -
58 KB

          TuPac [Death Row Uncut] [DVD] [Very Rare]/TuPac (Death Row Uncut) [DVD]/VIDEO_TS/VTS_01_1.VOB -
1023.97 MB

          TuPac [Death Row Uncut] [DVD] [Very Rare]/TuPac (Death Row Uncut) [DVD]/VIDEO_TS/VTS_01_2.VOB -
1023.97 MB

          TuPac [Death Row Uncut] [DVD] [Very Rare]/TuPac (Death Row Uncut) [DVD]/VIDEO_TS/VTS_01_3.VOB -
1023.97 MB

          TuPac [Death Row Uncut] [DVD] [Very Rare]/TuPac (Death Row Uncut) [DVD]/VIDEO_TS/VTS_01_4.VOB -
2.45 MB

          TuPac [Death Row Uncut] [DVD] [Very Rare]/TuPac Death Row Uncut [DVD Covers]/Welcome To Death Row - Disc.jpg -
41.34 KB

          TuPac [Death Row Uncut] [DVD] [Very Rare]/TuPac Death Row Uncut [DVD Covers]/Welcome To Death Row - DVD Cover.jpg -
280.63 KB

          TuPac [Welcome To Death Row] [DVD Covers]/Welcome To Death Row - Disc.jpg -
41.34 KB

          TuPac [Welcome To Death Row] [DVD Covers]/Welcome To Death Row - DVD Cover.jpg -
280.63 KB

          TuPac [Welcome To Death Row] [DVD]/VIDEO_TS/VIDEO_TS.BUP -
12 KB

          TuPac [Welcome To Death Row] [DVD]/VIDEO_TS/VIDEO_TS.IFO -
12 KB

          TuPac [Welcome To Death Row] [DVD]/VIDEO_TS/VIDEO_TS.VOB -
58 KB

          TuPac [Welcome To Death Row] [DVD]/VIDEO_TS/VTS_01_0.BUP -
72 KB

          TuPac [Welcome To Death Row] [DVD]/VIDEO_TS/VTS_01_0.IFO -
72 KB

          TuPac [Welcome To Death Row] [DVD]/VIDEO_TS/VTS_01_0.VOB -
58 KB

          TuPac [Welcome To Death Row] [DVD]/VIDEO_TS/VTS_01_1.VOB -
1023.97 MB

          TuPac [Welcome To Death Row] [DVD]/VIDEO_TS/VTS_01_2.VOB -
915.98 MB

     Torrent downloaded from AhaShare.com.txt -
59 bytes

     TuPac [Welcome To Death Row - DVD Plus Bonus].NFO -
5.16 KB



Description



===============================================================================================
[ Another free and high quality DVD - Uploaded by Hannspree - I will be adding new torrents on a daily basis - Remember to seed ]
===============================================================================================
MOVIE TITLE: Welcome To Death Row & Death Row Uncut [Very Rare]
LANGUAGE: English
MOVIE SUBS: No - (subtitles if/when required)
===============================================================================================
MOVIE DESC:

Death Row Records exploded on the music scene in 1993 with a "Gangsta Rap" sound that took the world by storm.
Yet despite its unprecedented success with stars such as 'Dr Dre' - 'Snoop Dogg' and the ledgenary 'Tu Pac', it quickly
unraveled into a firestorm of rivalries, greed, violence and scrutiny by the government and the media as 'Suge' Knight's
unconventional business methods increasingly mirrored the violent hard-edged themes of its music.

This DVD movie is the complete and untold story in the words of the people who were there.
It is an inside look at the American dream gone insane.
===============================================================================================
MOVIE SPECS:

GENERAL:
Complete name : Welcome To Death Row
Format : MPEG-PS
File size : 4.89
Duration : 104 Minutes
Overall bit rate : 2 630 Kbps

VIDEO:
ID : 224 (0xE0)
Format : MPEG Video
Format version : Version 2
Format profile : [email protected]
Format settings, BVOP : Yes
Format settings, Matrix : Default
Duration : 104 Minutes
Bit rate mode : Variable
Bit rate : 2 386 Kbps
Nominal bit rate : 9 608 Kbps
Width : 720 pixels
Height : 576 pixels
Display aspect ratio : 4:3
Frame rate : 25.000 fps
Standard : PAL
Color space : YUV
Chroma subsampling : 4:2:0
Bit depth : 8 bits
Scan type : Progressive
Bits/(Pixel*Frame) : 0.230
Stream size : 929 MiB (91%)

AUDIO:
ID : 128 (0x80)
Format : AC-3
Format/Info : Audio Coding 3
Mode extension : CM (complete main)
Duration : 104 Minutes
Bit rate mode : Constant
Bit rate : 192 Kbps
Channel(s) : 2 channels
Channel positions : Front: L R
Sampling rate : 48.0 KHz
Stream size : 74.8 MiB (7%)
===============================================================================================
STREAM:

Video: MPEG2 Video 720x576 (16:9) [Video]
Audio: Dolby AC3 48000Hz stereo [AC3]
===============================================================================================
TOTAL FILE SIZE:

4.89 GB (5,259,130,100 bytes)
===============================================================================================
TORRENT CONTENTS:

25 Files in 9 Folders (VIDEO_TS & AUDIO_TS)
===============================================================================================
IMDB LINK:

http://www.imdb.com/title/tt0275066/
===============================================================================================

Related torrents

Torrent NameAddedSizeSeedLeechHealth
Verified torrent
1 Year+ - in Music340.08 MB75
Verified torrent
1 Year+ - in Music99.23 MB10
1 Year+ - in Other1.29 GB10
1 Year+ - in Movies1.06 GB00
1 Year+ - in Music545.74 MB00

Comments (0 Comments)




Please login or create a FREE account to post comments

Latest Searches

| sister caught on camera | The Warriors Way hindi | va now thats what i call love 2016 | y must i | Hardcores | O J Made in America documentary | Corel Painter | Pac s Life 2006 2Pac | bdsm mr kane | Eggers Your Fathers Where are They |