Quick Browse
Movies
TV shows
Music
Games
Applications
Anime
Other
Facebook
Advertising

Friends
Torrent Download
Movie4u
1337x.to
Torrent Downloads




Verified torrent TuPac [Before I Wake] [Documentary] [DVD] [AC3] [Hannspree]


    Seeders : 0      Leechers : 1

Trackers List

Tracker NameLast CheckStatusSeedersLeechers
udp://tracker.publicbt.com:80/announce1 Year+success01
udp://tracker.openbittorrent.com:801 Year+success00
udp://tracker.istole.it:801 Year+success00




Torrent File Content (13 files)


TuPac [Before I Wake] [Documentary]
    TuPac [Before I Wake - Documentary]
          VIDEO_TS/VIDEO_TS.BUP -
12 KB

          VIDEO_TS/VIDEO_TS.IFO -
12 KB

          VIDEO_TS/VIDEO_TS.VOB -
58 KB

          VIDEO_TS/VTS_01_0.BUP -
72 KB

          VIDEO_TS/VTS_01_0.IFO -
72 KB

          VIDEO_TS/VTS_01_0.VOB -
58 KB

          VIDEO_TS/VTS_01_1.VOB -
1023.97 MB

          VIDEO_TS/VTS_01_2.VOB -
1023.97 MB

          VIDEO_TS/VTS_01_3.VOB -
467.5 MB

          TuPac [Before I Wake - Documentary] Covers/TuPac [Before I Wake] Cover.jpg -
349 KB

          TuPac [Before I Wake - Documentary] Covers/TuPac [Before I Wake] Disc 1.jpg -
227.78 KB

          TuPac [Before I Wake - Documentary] Covers/TuPac [Before I Wake] Disc 2.jpg -
240.6 KB

     TuPac [Before I Wake - Documentary].NFO -
6.01 KB



Description



====================================================================================================
[ Another free and high quality, ready to burn DVD - I will be adding new torrents on a daily basis - Remember to seed ]
====================================================================================================
MOVIE TITLE: TuPac - Before I Wake
LANGUAGE: English
MOVIE SUBS: No - (subtitles if/when required)
BURN TESTED: Yes
FORMAT: Pal
GENRE: Music | Documentary
RUNTIME: 100 Minutes
YEAR: 2001
IMDB LINK: http://www.imdb.com/title/tt0290142/
====================================================================================================
GENERAL MOVIE DESC:

Before I Wake is unique in that it is the only known documentary that chronicles the last year of Tupac Shakur's life as seen
through the eyes of the one person that was closest to him, his bodyguard, Frank Alexander. For the first time see intimate
details, including behind the scenes studio footage of Tupac creating some of his most innovative music.

Then you actually go to the place where Tupac was shot in Las Vegas and speak with investigators still trying to solve his
murder. It has actual interview footage and never seen before studio footage of Tupac Shakur. Also interview footage of
Eric 'Eazy E' Wright, Russell Simmon, Rev. Jesse Jackson Sr, Cathy Scott, the Las Vegas Reporter, and the main
Las Vegas Detective on the cast, Detective Becker.
====================================================================================================
GENERAL MOVIE SPECS:

GENERAL:
Complete name : TuPac [Before I Wake - Documentary]
Format : MPEG-PS
File size : 2.45 GB
Duration : 100 Minutes
Overall bit rate : 3 609 Kbps

VIDEO:
ID : 224 (0xE0)
Format : MPEG Video
Format version : Version 2
Format profile : [email protected]
Format settings, BVOP : Yes
Format settings, Matrix : Default
Duration : 100 Minutes
Bit rate mode : Variable
Bit rate : 3 345 Kbps
Nominal bit rate : 9 608 Kbps
Width : 720 pixels
Height : 576 pixels
Display aspect ratio : 4:3
Frame rate : 25.000 fps
Standard : PAL
Color space : YUV
Chroma subsampling : 4:2:0
Bit depth : 8 bits
Scan type : Progressive
Bits/(Pixel*Frame) : 0.323
Stream size : 949 MiB (93%)

AUDIO:
ID : 128 (0x80)
Format : AC-3
Format/Info : Audio Coding 3
Mode extension : CM (complete main)
Duration : 100 Minutes
Bit rate mode : Constant
Bit rate : 192 Kbps
Channel(s) : 2 channels
Channel positions : Front: L R
Sampling rate : 48.0 KHz
Stream size : 54.5 MiB (5%)
====================================================================================================

Related torrents

Torrent NameAddedSizeSeedLeechHealth
Verified torrent
1 Year+ - in Movies2.85 GB00
Verified torrent
1 Year+ - in Movies1.54 GB14
Verified torrent
1 Year+ - in Movies2.74 GB13
1 Year+ - in Movies635.6 MB00
1 Year+ - in Movies707.19 MB04

Comments (0 Comments)




Please login or create a FREE account to post comments

Latest Searches

| TeensLoveHugeCocks Rosyln Belle Candy Crotch NEW 03 December 2016 | Marvels Agents S04E08 | desi wife hidden | 6461 | Bran Leda | Corel VideoStudio Ultimate Pro X9 19 1 0 14 | 3 s01 ita | Chimaira Pass out of existence | outside calvin harris remix | Lucy Sister Pays Debit With Pussy |