Quick Browse
Movies
TV shows
Music
Games
Applications
Anime
Other
Facebook
Advertising

Friends
Torrent Download
Movie4u
1337x.to
Torrent Downloads




Verified torrent TuPac [Ressurection] [Documentary] [DVD] [AC3] [Hannspree]


    Seeders : 1      Leechers : 3

Trackers List

Tracker NameLast CheckStatusSeedersLeechers




Torrent File Content (12 files)


TuPac [Ressurection] [Documentary]
    TuPac [Ressurection]
          TuPac [Ressurection] Covers/TuPac [Ressurection] Cover.jpg -
483.5 KB

          TuPac [Ressurection] Covers/TuPac [Ressurection] Disc.jpg -
382.07 KB

          TuPac [Ressurection] DVD/VIDEO_TS/VIDEO_TS.BUP -
12 KB

          TuPac [Ressurection] DVD/VIDEO_TS/VIDEO_TS.IFO -
12 KB

          TuPac [Ressurection] DVD/VIDEO_TS/VIDEO_TS.VOB -
58 KB

          TuPac [Ressurection] DVD/VIDEO_TS/VTS_01_0.BUP -
78 KB

          TuPac [Ressurection] DVD/VIDEO_TS/VTS_01_0.IFO -
78 KB

          TuPac [Ressurection] DVD/VIDEO_TS/VTS_01_0.VOB -
58 KB

          TuPac [Ressurection] DVD/VIDEO_TS/VTS_01_1.VOB -
1023.97 MB

          TuPac [Ressurection] DVD/VIDEO_TS/VTS_01_2.VOB -
1023.97 MB

          TuPac [Ressurection] DVD/VIDEO_TS/VTS_01_3.VOB -
759.55 MB

     TuPac [Ressurection].NFO -
5.48 KB



Description



====================================================================================================
[ Another free and high quality, ready to burn DVD - I will be adding new torrents on a daily basis - Remember to seed ]
====================================================================================================
MOVIE TITLE: TuPac [Ressurection]
LANGUAGE: English
MOVIE SUBS: No - (subtitles if/when required)
BURN TESTED: Yes
FORMAT: Pal
GENRE: Documentary | Biography | Music
RUNTIME: 108 Minutes
YEAR: 2003
IMDB LINK: http://www.imdb.com/title/tt0343121/
====================================================================================================
GENERAL MOVIE DESC:

Home movies, photographs, and recited poetry illustrate the life of Tupac Shakur, one of the most beloved, revolutionary, and volatile hip-hop MCs of all time.
====================================================================================================
GENERAL MOVIE SPECS:

GENERAL:
Complete name : TuPac [Ressurection]
Format : MPEG-PS
File size : 2.74 GB
Duration : 108 Minutes
Overall bit rate : 3 420 Kbps

VIDEO:
ID : 224 (0xE0)
Format : MPEG Video
Format version : Version 2
Format profile : [email protected]
Format settings, BVOP : Yes
Format settings, Matrix : Default
Duration : 108 Minutes
Bit rate mode : Variable
Bit rate : 3 160 Kbps
Nominal bit rate : 9 608 Kbps
Width : 720 pixels
Height : 576 pixels
Display aspect ratio : 16:9
Frame rate : 24.000 fps
Standard : PAL
Color space : YUV
Chroma subsampling : 4:2:0
Bit depth : 8 bits
Scan type : Progressive
Scan order : 2:2:2:2:2:2:2:2:2:2:2:3 Pulldown
Bits/(Pixel*Frame) : 0.317
Stream size : 946 MiB (92%)

AUDIO:
ID : 128 (0x80)
Format : AC-3
Format/Info : Audio Coding 3
Mode extension : CM (complete main)
Duration : 108 Minutes
Bit rate mode : Constant
Bit rate : 192 Kbps
Channel(s) : 2 channels
Channel positions : Front: L R
Sampling rate : 48.0 KHz
Stream size : 57.5 MiB (6%)
====================================================================================================

Related torrents

Torrent NameAddedSizeSeedLeechHealth
Verified torrent
1 Year+ - in Movies2.85 GB00
Verified torrent
1 Year+ - in Movies1.54 GB14
Verified torrent
1 Year+ - in Movies2.46 GB01
Verified torrent
1 Year+ - in Movies2.16 GB111
Verified torrent
1 Year+ - in Movies1.51 GB14

Comments (0 Comments)




Please login or create a FREE account to post comments

Latest Searches

| sake of art | how its made 2015 special top 5 christmas gifts 720p x264 hdtv mvgroup | TARA HOLIDAY 16 | Michael T Jacobs | Chanel Lux legalporno | iamdlow bet u can t do it like me | Move That Dope mp3 | fucks her roommate | the maze runner 2014 fansub vostfr dvdrip xvid ac3 atn | Il Conforto |