Quick Browse
Movies
TV shows
Music
Games
Applications
Anime
Other
Facebook
Advertising

Friends
Torrent Download
Movie4u
1337x.to
Torrent Downloads




Verified torrent Tum A Dangerous Obsession (2004) Hindi 18+ 1CD DVDRIP [email protected]


    Seeders : 1      Leechers : 4

Trackers List

Tracker NameLast CheckStatusSeedersLeechers




Torrent File Content (3 files)


Tum A Dangerous Obsession (2004) 18+ 1CD DVDRIP XviD(www.mastitorrents.com)
     www.mastitorrents.com.txt -
538 bytes

     Tum A Dangerous Obsession (2004) 18+ 1CD DVDRIP XviD(www.mastitorrents.com).avi -
759.2 MB

     Catch Us On Facebook.txt -
212 bytes



Description



[color=red][font=Georgia]mastitorrents.com

http://mastitorrents.com/forums/index.php

General

Format : AVI
Format/Info : Audio Video Interleave
File size : 759 MiB
Duration : 2h 21mn
Overall bit rate : 752 Kbps
Writing application : MEncoder SVN-r30881(20100311-gcc4.3.3)
Writing library : MPlayer


Video

ID : 0
Format : MPEG-4 Visual
Format profile : Advanced [email protected]
Format settings, BVOP : 2
Format settings, QPel : No
Format settings, GMC : No warppoints
Format settings, Matrix : Default (H.263)
Codec ID : XVID
Codec ID/Hint : XviD
Duration : 2h 21mn
Bit rate : 612 Kbps
Width : 640 pixels
Height : 284 pixels
Display aspect ratio : 2.25:1
Frame rate : 25.000 fps
Color space : YUV
Chroma subsampling : 4:2:0
Bit depth : 8 bits
Scan type : Progressive
Compression mode : Lossy
Bits/(Pixel*Frame) : 0.135
Stream size : 618 MiB (81%)
Writing library : XviD 1.2.1 (UTC 2008-12-04)


Audio

ID : 1
Format : MPEG Audio
Format version : Version 1
Format profile : Layer 3
Mode : Joint stereo
Mode extension : MS Stereo
Codec ID : 55
Codec ID/Hint : MP3
Duration : 2h 21mn
Bit rate mode : Constant
Bit rate : 128 Kbps
Channel(s) : 2 channels
Sampling rate : 44.1 KHz
Compression mode : Lossy
Delay relative to video : 40ms
Stream size : 129 MiB (17%)
Alignment : Aligned on interleaves
Interleave, duration : 26 ms (0.65 video frame)
Interleave, preload duration : 522 ms
Writing library : LAME3.98
Language : Hindi
[/font][/color]

http://www.imgplace.com/viewimg155/848/19vlcsnap2011103000h35m.png

http://www.imgplace.com/viewimg802/8620/74vlcsnap2011103000h35m.png

http://www.imgplace.com/viewimg528/7060/75vlcsnap2011103000h37m.png

http://www.imgplace.com/viewimg27/1072/99vlcsnap2011103000h37m.png

http://www.imgplace.com/viewimg204/1682/56vlcsnap2011103000h40m.png

http://www.imgplace.com/viewimg695/7329/59vlcsnap2011103000h44m.png

Related torrents

Torrent NameAddedSizeSeedLeechHealth
10 months ago - in Movies849.36 MB54
1 Year+ - in Movies699.45 MB1,3081,358
1 Year+ - in Movies691.76 MB222
1 Year+ - in Movies701.86 MB3241
1 Year+ - in Movies702.99 MB00

Comments (0 Comments)




Please login or create a FREE account to post comments

Latest Searches

| I prosseneti 1976 | free YouTube Downloader Crack | king kid cudi | was a man | I really really really really like girls | Road M | Double Trouble jackie | 100 drake | baker berlioz | funk me |