Quick Browse
Movies
TV shows
Music
Games
Applications
Anime
Other
Facebook
Advertising

Friends
Torrent Download
Movie4u
1337x.to
Torrent Downloads




Verified torrent Tupac [Assassination Conspiracy Or Revenge] [Documentary] [DVD] [AC3] [Hannspree]


    Seeders : 1      Leechers : 4

Trackers List

Tracker NameLast CheckStatusSeedersLeechers




Torrent File Content (10 files)


Tupac [Assassination Conspiracy Or Revenge]
    Tupac [Assassination Conspiracy Or Revenge] [Covers]
          Tupac [Assassination Conspiracy Or Revenge] Cover.jpg -
2.61 MB

    Tupac [Assassination Conspiracy Or Revenge] [DVD]
          VIDEO_TS/VIDEO_TS.BUP -
12 KB

          VIDEO_TS/VIDEO_TS.IFO -
12 KB

          VIDEO_TS/VIDEO_TS.VOB -
58 KB

          VIDEO_TS/VTS_01_0.BUP -
62 KB

          VIDEO_TS/VTS_01_0.IFO -
62 KB

          VIDEO_TS/VTS_01_0.VOB -
58 KB

          VIDEO_TS/VTS_01_1.VOB -
1023.97 MB

          VIDEO_TS/VTS_01_2.VOB -
552.62 MB

     Tupac [Assassination Conspiracy Or Revenge].NFO -
5.81 KB



Description



====================================================================================================
[ Another free and high quality, ready to burn DVD - I will be adding new torrents on a daily basis - Remember to seed ]
====================================================================================================
MOVIE TITLE: Tupac [Assassination Conspiracy Or Revenge]
LANGUAGE: English
MOVIE SUBS: No - (subtitles if/when required)
BURN TESTED: Yes
FORMAT: Pal
GENRE: Documentary
RUNTIME: 88 Minutes
YEAR: 2006
IMDB LINK:
====================================================================================================
GENERAL MOVIE DESC:

TuPac Amaru Shakur was also known by his stage names' - '2Pac' - 'Makaveli' or simply 'Pac', was an American artist renowned
for his rapping and hip-hop music, as well as his movie roles, poetry, and his social activism. He is also recognized in the
Guninnes Book of World Records as the best selling rap artist of his era with in excess off 75,000,000 albums sold world wide,
including over 50,000,000 in the United States alone. The untimely death of this iconic figure is the main focus of this documentary.
What are the facts surrounding the shooting of 'TuPac Amaru Shakur'.
====================================================================================================
GENERAL MOVIE SPECS:

GENERAL:
Complete name : Tupac [Assassination Conspiracy Or Revenge]
Format : MPEG-PS
File size : 1.54 GB
Duration : 88 Minutes
Overall bit rate : 2 592 Kbps

VIDEO:
ID : 224 (0xE0)
Format : MPEG Video
Format version : Version 2
Format profile : [email protected]
Format settings, BVOP : Yes
Format settings, Matrix : Default
Duration : 88 Minutes
Bit rate mode : Variable
Bit rate : 2 349 Kbps
Nominal bit rate : 9 608 Kbps
Width : 720 pixels
Height : 576 pixels
Display aspect ratio : 4:3
Frame rate : 25.000 fps
Standard : PAL
Color space : YUV
Chroma subsampling : 4:2:0
Bit depth : 8 bits
Scan type : Progressive
Bits/(Pixel*Frame) : 0.227
Stream size : 928 MiB (91%)

AUDIO:
ID : 128 (0x80)
Format : AC-3
Format/Info : Audio Coding 3
Mode extension : CM (complete main)
Duration : 88 Minutes
Bit rate mode : Constant
Bit rate : 192 Kbps
Channel(s) : 2 channels
Channel positions : Front: L R
Sampling rate : 48.0 KHz
Stream size : 75.8 MiB (7%)
====================================================================================================

Related torrents

Torrent NameAddedSizeSeedLeechHealth
1 Year+ - in Movies699 MB127
Verified torrent
1 Year+ - in Movies2.85 GB00
Verified torrent
1 Year+ - in Movies2.46 GB01
Verified torrent
1 Year+ - in Movies2.74 GB13
Verified torrent
1 Year+ - in Movies2.16 GB111

Comments (0 Comments)




Please login or create a FREE account to post comments

Latest Searches

| Egypt central rabbit | mega mix dj | man in hole | Wondershare Video Converter Ultimate v5 7 1 Serial | End To End Web Development Tutorial | crack her jack 10 dvdrip xvid divxfactory | hilltop hoods sia | again married | stupid goldfish | 101 prelims |