Quick Browse
Movies
TV shows
Music
Games
Applications
Anime
Other
Facebook
Advertising

Friends
Torrent Download
Movie4u
1337x.to
Torrent Downloads




Verified torrent Tutti pazzi per amore 1x05-08 SATRip iTA Mp3 DivX-[IDN_CREW]


    Seeders : 1      Leechers : 2

Trackers List

Tracker NameLast CheckStatusSeedersLeechers




Torrent File Content (5 files)


Tutti.pazzi.per.amore.1x05-08.SATRip.iTA.Mp3.DivX-[IDN_CREW]
     IDN_CREW Leggimi.txt -
294 bytes

     Tutti.pazzi.per.amore.1x05.Quello.che.le.donne.non.dicono.SATRip.iTA.Mp3.DivX-[IDN_CREW].avi -
400.3 MB

     Tutti.pazzi.per.amore.1x06.Metti.una.sera.a.cena.SATRip.iTA.Mp3.DivX-[IDN_CREW].avi -
400.38 MB

     Tutti.pazzi.per.amore.1x07.Amore.che.vieni.Amore.che.vai.SATRip.iTA.Mp3.DivX-[IDN_CREW].avi -
400.34 MB

     Tutti.pazzi.per.amore.1x08.Ed.io.tra.di.voi.SATRip.iTA.Mp3.DivX-[IDN_CREW].avi -
400.36 MB



Description



http://img98.imageshack.us/img98/7546/logotuttipazzi.jpg


http://img514.imageshack.us/img514/1502/inforelease.png


[color=teal]Titolo:[/color] Tutti pazzi per amore
[color=teal]Anno: [/color]2008
[color=teal]Nazionalità: [/color]Italia
[color=teal]Genere:[/color] Commedia Romantica - Musicale
[color=teal]Lingua:[/color] Italiano
[color=teal]Stagione:[/color] 1
[color=teal]Episodi:[/color] 26
[color=teal]Durata Episodio:[/color] 55 min ca (episodio)
[color=teal]Ideatore:[/color] Ivan Cotroneo
[color=teal]Regia:[/color] Riccardo Milani, Laura Muscardin
[color=teal]Produzione:[/color] Rai Fiction e Publispei
[color=teal]Distribuzione:[/color] RAI 1 – Trasmesso dal Dicembre 2008 a Febbraio 2009
[color=teal]Fonti:[/color]
[color=white] http://it.wikipedia.org/wiki/Tutti_pazzi_per_amore#Prima_stagione [/color]


http://img685.imageshack.us/img685/5835/casta.png


[color=teal]

Emilio Solfrizzi (Paolo Giorgi)
Stefania Rocca (Laura del Fiore)
Carlotta Natoli (Monica Liverani)
Neri Marcorè (Michele Ventoni)
Nicole Murgia (Cristina Giorgi)
Marco Brenno (Emanuele Balestrieri)
Laura Calgani (Nina Balestrieri)
Sonia Bergamasco (Lea De Angelis)
Francesca Inaudi (Maya Marini)
Irene Ferri (Rosa Salerno)
Corrado Fortuna (Elio Franci)
Pietro Taricone (Ermanno Russo)
Marina Rocco (Stefania Del Fiore)
Luca Angeletti (Giulio Pierantoni)
Piera degli Esposti (Clelia Arcangeli)
Luigi Diberti (Mario Del Fiore)
Pia Velsi (Zia Filomena Giorgi)
Carla Signoris (La signorina Carla)
Giuseppe Battiston (Dottor Freiss)
Clizia Fornasier (Natascia Leonardi) [/size][/color]

http://img153.imageshack.us/img153/7608/tramao.png


[color=black]Paolo è un quarantenne vedovo con una figlia adolescente, Laura è una trentottenne divorziata dal padre dei suoi figli. Le loro vite si intrecciano quando Paolo e sua figlia Cristina si trasferiscono nello stesso pianerottolo dell'appartamento di Laura e dei suoi due figli. I due in seguito si conoscono ed iniziano a frequentarsi. Completano il gruppo l'amico di Paolo, Michele, che si innamora della migliore amica di Laura, Monica, la sorella di Laura, Stefania, ed il suo fidanzato, Giulio. [/color]

http://img864.imageshack.us/img864/7976/episodi.png


[color=black]1. Questione di feeling
2. Se telefonando
3. Io vorrei, non vorrei, ma se vuoi
4. Per un’ora d’amore
5. Quello che le donne non dicono
6. Metti una sera a cena
7. Amore che vieni, amore che vai
8. Ed io tra di voi
9. Strani Amori
10. L’Anno che verrà
11.Inevitabile follia
12.Certe notti
13.Questione di cellule
14.Come si cambia
15.Le cose che abbiamo in comune
16.L’amore ci cambia la vita
17….e intanto il tempo se ne va
18.Maledetta primavera
19.Quale allegria
20.Non gioco più
21.Nessun dolore
22.Si è spento il sole
23.Quando finisce un amore
24.Ti sposerò perché
25.Ti lascerò
26.Datemi un martello

[/color]


http://img190.imageshack.us/img190/7663/recension.png


[color=black] L'intreccio è quello della più tradizionale screwball comedy, la commedia degli equivoci e dell'inevitabile attrazione tra opposti che ha costituito il canovaccio perfetto di tanti classici film hollywoodiani. Lui (Emilio Solfrizzi) e lei (Stefania Rocca) sono gli innamorati per antonomasia, tanto da chiamarsi perfino Paolo e Laura, in omaggio alla nostra tradizione letteraria. Due vicini di casa che non fanno altro che battibeccare, anche se in realtà non si sono mai conosciuti di persona (infatti comunicano lasciandosi messaggi sulle tapparelle). Ma quando si incontrano per la prima volta vis-à-vis fanno subito scintille. Il guaio è che nessuno dei due sa che l'altro è l'odioso dirimpettaio con cui va su tutte le furie ogni mattina. Galeotto (è proprio il caso di dirlo) è un film: Da qui all'eternità, che Laura considera una specie di termometro amoroso in grado di misurare l'affinità fra una coppia. Tutti pazzi per amore è fin dal titolo un'inequivocabile dichiarazione d'intenti: prendere un'intera tradizione, quella del genere romantico, cui si aggiunge anche un inedito riferimento al musical, e riadattarla al formato nostrano della fiction "di famiglia", un po' alla I Cesaroni. Non a caso i produttori della serie, Rai e Publispei, sono gli stessi che concepirono Un medico in famiglia. [/glow][/color][/size]
http://img529.imageshack.us/img529/7286/datifile.png


[color=teal] General
Complete name :
Tutti.pazzi.per.amore.1x01.Questioni.di.feeling.SATRip.iTA.Mp3.DivX-[IDN_CREW]
Format : AVI
Format/Info : Audio Video Interleave
File size : 400 MiB
Duration : 56mn 14s
Overall bit rate : 995 Kbps
Writing application : VirtualDubMod 1.5.10.2 (build 2540/release)
Writing library : VirtualDubMod build 2540/release

Video
Format : MPEG-4 Visual
Format settings, BVOP : Yes
Format settings, QPel : No
Format settings, GMC : No warppoints
Format settings, Matrix : Default
Codec ID : DX50
Codec ID/Hint : DivX 5
Duration : 56mn 14s
Bit rate : 858 Kbps
Width : 720 pixels
Height : 400 pixels
Display aspect ratio : 16/9
Frame rate : 25.000 fps
Resolution : 24 bits
Colorimetry : 4:2:0
Scan type : Progressive
Bits/(Pixel*Frame) : 0.119
Stream size : 345 MiB (86%)
Writing library : DivX 2676

Audio
Format : MPEG Audio
Format version : Version 1
Format profile : Layer 3
Codec ID : 55
Codec ID/Hint : MP3
Duration : 56mn 14s
Bit rate mode : Constant
Bit rate : 128 Kbps
Channel(s) : 2 channels
Sampling rate : 48.0 KHz
Resolution : 16 bits
Stream size : 51.5 MiB (13%)
Alignment : Split accross interleaves
Interleave, duration : 40 ms (1.00 video frame)
Interleave, preload duration : 500 ms


[/color]

http://img20.imageshack.us/img20/4974/screenshotsph.png


[color=red]Immagini catturate con VLC Media Player[/color]

http://img220.imageshack.us/img220/3131/vlcsnap2011090516h48m37.png

http://img835.imageshack.us/img835/3404/vlcsnap2011090516h48m30.png

http://img221.imageshack.us/img221/4159/vlcsnap2011090516h48m25.png

http://img23.imageshack.us/img23/4215/vlcsnap2011090516h48m15.png

http://img833.imageshack.us/img833/1144/vlcsnap2011090516h48m02.png


http://torrent-stats.info/ebfa/171218d48.png

Related torrents

Torrent NameAddedSizeSeedLeechHealth
Verified torrent
1 Year+ - in TV shows1.56 GB10
Verified torrent
1 Year+ - in TV shows1.57 GB16
1 Year+ - in TV shows900.78 MB20
1 Year+ - in Other799.91 MB3860
1 Year+ - in Other799.92 MB00

Comments (0 Comments)




Please login or create a FREE account to post comments

Latest Searches

| boobs extreme | lego tigole | c uicideboy | murach mysql php | Whispering The | the guns of nl | Milena Velba And Emma Sinclaire | ashampoo photo optimizer 20 | allover30 16 12 | enigma out from the deep |