Quick Browse
Movies
TV shows
Music
Games
Applications
Anime
Other

Donate and Support

Friends
Torrents.me
Torrent Download
Free Movies
1337x
RARBG
Torrent Downloads

Twin Peaks S03E10 PROPER 720p HDTV x264-AVS


    Seeders : 0      Leechers : 0
Hash :B36DC56DC606E0A0A2CE476AB04CADEFFC11C912
Added :8 days ago in TV shows
Size :968.88 MB
Stream :Watch Full Movies Online @ Movie4u
Share :


Twin Peaks S03E10 PROPER 720p HDTV x264-AVS
Anonymous and Direct Download 300GB+ free







Warning! Do not Download Torrents Without a VPN!
Your IP Address is .   And Location is
Your Internet Provider and Government can track your torrent Activity!  Hide your IP ADDRESS with a VPN!
We Strongly Recommend Using SpyOFF Torrent VPN to Anonymize your Torrenting. It's FREE For 15 Days!

Note :

Please Update (Trackers Info) Before Downloading Torrents to See Updated Seeders And Leechers for Batter Download Speed.

Trackers List

Tracker NameLast CheckStatusSeedersLeechers




Torrent File Content (2 files)


Twin.Peaks.S03E10.PROPER.720p.HDTV.x264-AVS
     Twin.Peaks.S03E10.PROPER.720p.HDTV.x264-AVS.mkv -
968.88 MB

     twin.peaks.s03e10.proper.720p.hdtv.x264-avs.nfo -
164 bytes



Description



Twin.Peaks.S03E10.PROPER.720p.HDTV.x264-AVS



Complete name : Twin.Peaks.S03E10.PROPER.720p.HDTV.x264-AVS.mkv
Format : Matroska
Format version : Version 4 / Version 2
File size : 969 MiB
Duration : 53 min 21 s
Overall bit rate : 2 538 kb/s
Encoded date : UTC 2017-07-17 02:08:19
Writing application : FastLE v3.0.0 - AVS
Writing library : libx264 + libebml + libmatroska + libfastrar

Video
ID : 1
Format : AVC
Format/Info : Advanced Video Codec
Format profile : [email protected]/* */
Format settings, CABAC : Yes
Format settings, ReFrames : 5 frames
Codec ID : V_MPEG4/ISO/AVC
Duration : 53 min 21 s
Bit rate : 2 104 kb/s
Width : 1 280 pixels
Height : 718 pixels
Display aspect ratio : 16:9
Frame rate mode : Constant
Frame rate : 23.976 (24000/1001) FPS
Color space : YUV
Chroma subsampling : 4:2:0
Bit depth : 8 bits
Scan type : Progressive
Bits/(Pixel*Frame) : 0.095
Stream size : 803 MiB (83%)
Writing library : x264 core 152 r2851 ba24899
Encoding settings : cabac=1 / ref=5 / deblock=1:0:0 / analyse=0x3:0x113 / me=hex / subme=8 / psy=1 / psy_rd=1.00:0.00 / mixed_ref=1 / me_range=16 / chroma_me=1 / trellis=2 / 8x8dct=1 / cqm=0 / deadzone=21,11 / fast_pskip=1 / chroma_qp_offset=-2 / threads=22 / lookahead_threads=3 / sliced_threads=0 / nr=0 / decimate=1 / interlaced=0 / bluray_compat=0 / constrained_intra=0 / bframes=3 / b_pyramid=2 / b_adapt=1 / b_bias=0 / direct=3 / weightb=1 / open_gop=0 / weightp=2 / keyint=250 / keyint_min=23 / scenecut=40 / intra_refresh=0 / rc_lookahead=50 / rc=crf / mbtree=1 / crf=18.0 / qcomp=0.60 / qpmin=0 / qpmax=69 / qpstep=4 / ip_ratio=1.40 / aq=1:1.00
Default : Yes
Forced : No
Color range : Limited
Matrix coefficients : BT.709

Audio
ID : 2
Format : AC-3
Format/Info : Audio Coding 3
Format settings, Endianness : Big
Codec ID : A_AC3
Duration : 53 min 21 s
Bit rate mode : Constant
Bit rate : 384 kb/s
Channel(s) : 6 channels
Channel positions : Front: L C R, Side: L R, LFE
Sampling rate : 48.0 kHz
Frame rate : 31.250 FPS (1536 spf)
Bit depth : 16 bits
Compression mode : Lossy
Stream size : 147 MiB (15%)
Service kind : Complete Main
Default : Yes
Forced : No






Click To View Screenshot

Click To View Screenshot

Click To View Screenshot


Related torrents

Torrent NameAddedSizeSeedLeechHealth
Verified torrent
8 days ago - in TV shows968.88 MB1098
Verified torrent
8 days ago - in TV shows968.88 MB19113
8 days ago - in TV shows278.23 MB00
Verified torrent
8 days ago - in TV shows278.23 MB17016
Verified torrent
8 days ago - in TV shows278.23 MB23521

Comments (0 Comments)




Please login or create a FREE account to post comments

Latest Searches

| a death in sweden by kevin wignall thriller epub | Game of Thrones S07E02 french | amateur photos nude | X Art Caprice Anya Olsen Caprice Swaps Cocks 17 09 16 rq mp4 | columbine library | Silver Spoon 2 07 | Resident Evil Collection sub | Silver Spoon S2 07 | 2017 | acoustica loop library |