Quick Browse
Movies
TV shows
Music
Games
Applications
Anime
Other

Donate and Support

Friends
Torrents.me
Torrent Download
Free Movies
1337x
RARBG
Torrent Downloads

Verified torrent Twista ft Chris Brown - Make A Movie [KingPinVideos]


    Seeders : 376      Leechers : 8
Hash :A91ECF0B68CC54E60C3400B8D5BA5308D839BD1F
Added :1 Year+ by KingPinVerified torrent uploader in Music - Music Videos
Size :75.67 MB
Stream :Watch Full Movies Online @ Movie4u
Share :


Twista ft Chris Brown - Make A Movie [KingPinVideos]
Anonymous and Direct Download 300GB+ free







Warning! Do not Download Torrents Without a VPN!
Your IP Address is .   And Location is
Your Internet Provider and Government can track your torrent Activity!  Hide your IP ADDRESS with a VPN!
We Strongly Recommend Using SpyOFF Torrent VPN to Anonymize your Torrenting. It's FREE For 15 Days!

Note :

Please Update (Trackers Info) Before Downloading Torrents to See Updated Seeders And Leechers for Batter Download Speed.

Trackers List

Tracker NameLast CheckStatusSeedersLeechers




Torrent File Content (5 files)


Twista ft Chris Brown - Make A Movie [KingPinVideos]
     Twista ft Chris Brown - Make A Movie [KingPinVideos].mpg -
75.66 MB

     Twista ft Chris Brown - Make A Movie [KingPinVideos].nfo -
1.92 KB

     Twista ft Chris Brown - Make A Movie [KingPinVideos].txt -
1.64 KB

     Torrent downloaded from Demonoid.com.txt -
47 bytes

     Torrent Downloaded from Limetorrents.com.txt -
46 bytes



Description



http://img295.imageshack.us/img295/2887/twistamakeamovie.png


http://img844.imageshack.us/img844/280/twistamakeamovie2.png


[code]General
Complete name : Twista ft Chris Brown - Make A Movie [KingPinVideos].mpg
Format : MPEG-PS
File size : 75.7 MiB
Duration : 3mn 42s
Overall bit rate : 2 856 Kbps
Writing library : encoded by TMPGEnc 4.0 XPress Version. 4.7.4.299

Video
ID : 224 (0xE0)
Format : MPEG Video
Format version : Version 1
Format settings, BVOP : Yes
Format settings, Matrix : Default
Duration : 3mn 42s
Bit rate mode : Constant
Bit rate : 2 615 Kbps
Nominal bit rate : 2 700 Kbps
Width : 384 pixels
Height : 208 pixels
Display aspect ratio : 16:9
Frame rate : 29.970 fps
Resolution : 8 bits
Scan type : Progressive
Bits/(Pixel*Frame) : 1.092
Stream size : 69.3 MiB (92%)
Writing library : TMPGEnc XPress 4.7.4.299

Audio
ID : 192 (0xC0)
Format : MPEG Audio
Format version : Version 1
Format profile : Layer 2
Duration : 3mn 42s
Bit rate mode : Constant
Bit rate : 128 Kbps
Channel(s) : 2 channels
Sampling rate : 48.0 KHz
Stream size : 3.39 MiB (4%)[/code]

Related torrents

Torrent NameAddedSizeSeedLeechHealth
Verified torrent
1 Year+ - in Music49.78 MB818
4 months ago - in Music3.26 MB00
1 Year+ - in Music49.42 MB11
1 Year+ - in Movies53.39 MB30
11 months ago - in Other3.16 MB00

Comments (0 Comments)




Please login or create a FREE account to post comments

Latest Searches

| new daughter 2009 1080p | beat the boys | Indecentes Voisines Melissa Amateur Gets Fucked | atb the dj 6 in the mix 5 | GloryholeSwallow Hope s 2nd Gloryhole Visit | mystery pope | imagine dragons my life | 1 23 Red Light | Americas Test Kitchen S17E24 | Undercover season 1 5 |