Quick Browse
Movies
TV shows
Music
Games
Applications
Anime
Other
Facebook
Friends
Torrent Download
Movie4u
1337x.to
Torrent Downloads

Verified torrent Twista ft Chris Brown - Make A Movie [KingPinVideos]


    Seeders : 376      Leechers : 8


Trackers List

Tracker NameLast CheckStatusSeedersLeechers




Torrent File Content (5 files)


Twista ft Chris Brown - Make A Movie [KingPinVideos]
     Twista ft Chris Brown - Make A Movie [KingPinVideos].mpg -
75.66 MB

     Twista ft Chris Brown - Make A Movie [KingPinVideos].nfo -
1.92 KB

     Twista ft Chris Brown - Make A Movie [KingPinVideos].txt -
1.64 KB

     Torrent downloaded from Demonoid.com.txt -
47 bytes

     Torrent Downloaded from Limetorrents.com.txt -
46 bytes



Description



http://img295.imageshack.us/img295/2887/twistamakeamovie.png


http://img844.imageshack.us/img844/280/twistamakeamovie2.png


[code]General
Complete name : Twista ft Chris Brown - Make A Movie [KingPinVideos].mpg
Format : MPEG-PS
File size : 75.7 MiB
Duration : 3mn 42s
Overall bit rate : 2 856 Kbps
Writing library : encoded by TMPGEnc 4.0 XPress Version. 4.7.4.299

Video
ID : 224 (0xE0)
Format : MPEG Video
Format version : Version 1
Format settings, BVOP : Yes
Format settings, Matrix : Default
Duration : 3mn 42s
Bit rate mode : Constant
Bit rate : 2 615 Kbps
Nominal bit rate : 2 700 Kbps
Width : 384 pixels
Height : 208 pixels
Display aspect ratio : 16:9
Frame rate : 29.970 fps
Resolution : 8 bits
Scan type : Progressive
Bits/(Pixel*Frame) : 1.092
Stream size : 69.3 MiB (92%)
Writing library : TMPGEnc XPress 4.7.4.299

Audio
ID : 192 (0xC0)
Format : MPEG Audio
Format version : Version 1
Format profile : Layer 2
Duration : 3mn 42s
Bit rate mode : Constant
Bit rate : 128 Kbps
Channel(s) : 2 channels
Sampling rate : 48.0 KHz
Stream size : 3.39 MiB (4%)[/code]

Related torrents

Torrent NameAddedSizeSeedLeechHealth
Verified torrent
1 Year+ - in Music49.78 MB818
Last Month - in Music3.26 MB00
1 Year+ - in Music49.42 MB11
1 Year+ - in Movies53.39 MB30
8 months ago - in Other3.16 MB00

Comments (0 Comments)




Please login or create a FREE account to post comments

Latest Searches

| Met Art Amelie B Altrina | project cars dlc unlocker bat | vr mia malkova 60 | ride along 2014 brrip 720p | 2017 | Throb xxx | Aria Alexander Masters Interview Training | Jimmy Raney Stolen Moments | Rush Hour 2016 S | 8 5 Women |