Quick Browse
Movies
TV shows
Music
Games
Applications
Anime
Other
Facebook
Advertising

Friends
Torrent Download
Movie4u
1337x.to
Torrent Downloads




Verified torrent U2 - Vertigo Tour Live From Chicago 2005 [DivX - Ac3 5.1 Eng] Rock Live U2 [tntvillage]


    Seeders : 50      Leechers : 18

Trackers List

Tracker NameLast CheckStatusSeedersLeechers




Torrent File Content (1 file)


     U2 - Vertigo Tour 2005 - Chicago.avi -
1.85 GB



Description



U2 - Vertigo Tour Live From Chicago 2005 [DivX - Ac3 5.1 Eng] Rock Live U2 [Tntvillage]

Visit this link for more info http://forum.tntvillage.scambioetico.org/tntforum/?showtopic=221725



http://img104.Imageshack.us/img104/619/intestazione1.png


Vertigo Tour Live From Chicago

ripped by Colleromito


http://www.zuvideodigital.com.ve/oscomerce/catalog/images/u2_vertigo_2005_chicago.jpg


Visit the IMDB link: http://www.Imdb.com/title/tt0488664



Vertigo 2005: Live from Chicago is a concert film by rock band U2 from the first American leg of their Vertigo Tour.
Recorded on May 9 and May 10, 2005 at the United Center on the band's featured stop in Chicago, Illinois,
in front of 25,000 people, it was released November 14, 2005 on DVD.
The concert was filmed by Hamish Hamilton, who has directed other U2 concert DVDs.
The video is the band's best-selling DVD, having sold 285,000 copies as of January 2007, according to Nielsen Soundscan.


------------

Vertigo Tour Live From Chicago è un live degli U2 filmato il 9 e 10 maggio 2005 a Chicago durante il Vertigo Tour.




Commento

Il Vertigo tour è stato il tour dell'anno. Questo DVD contiene la registrazione del concerto che la band irlandese degli U2 ha tenuto all'United Center di Chicago il 10 maggio 2005.

Scaletta

City of Blinding Lights
Vertigo
Elevation
Cry/Electric Co.
An Cat Dubh/Into The Heart
Beautiful Day
New Year's Day
Miracle Drug
Sometimes You Can't Make It On Your Own
Love And Peace Or Else
Sunday Bloody Sunday
Bullet the Blue Sky
Running to Stand Still
Pride (In the Name of Love)
Where The Streets Have No Name
One
Zoo Station
The Fly
Mysterious Ways
All Because Of You
Original Of The Species
Yahweh
40



Artista: U2
Tipo album: Video live
Pubblicazione: 2005
Durata: 2 h 19 min
Tracce: 20
Genere: Rock
Etichetta: Island Records
Produttore: Ned O'Hanlon
Registrazione: United Center di Chicago il 9 e 10 maggio 2005
Note: Mixato da Carl Glanville


Bono Vox - Voce
The Edge - Chitarra, Tastiere, Voce
Adam Clayton - Basso, Chitarra (In "40")
Larry Mullen Jr. - Batteria





Trailer

Visit the YouTube link: http://www.Youtube.com/watch?v=_fuABFUsDwo


Dati Tecnici

http://img833.Imageshack.us/img833/6830/u2vertigotour2005chicag.png

http://img689.Imageshack.us/img689/6830/u2vertigotour2005chicag.png

http://img823.Imageshack.us/img823/6830/u2vertigotour2005chicag.png

http://img267.Imageshack.us/img267/6830/u2vertigotour2005chicag.png



General
Complete name : U2 - Vertigo Tour 2005 - Chicago.avi
Format : AVI
Format/Info : Audio Video Interleave
File size : 1.85 GiB
Duration : 2h 18mn
Overall bit rate : 1 910 Kbps
Movie name : U2 - Vertigo Tour 2005 - Chicago
Director : Colleromito
Subject : U2 - Vertigo Tour 2005 - Chicago
Writing application : VirtualDubMod 1.4.13
Writing library : VirtualDub build 14328/release
Copyright : TnT rippers
Comment : tntvillage.org
Video
ID : 0
Format : MPEG-4 Visual
Format settings, BVOP : Yes
Format settings, QPel : No
Format settings, GMC : No warppoints
Format settings, Matrix : Default (H.263)
Codec ID : DX50
Codec ID/Hint : DivX 5
Duration : 2h 18mn
Bit rate : 1 580 Kbps
Width : 624 pixels
Height : 352 pixels
Display aspect ratio : 16:9
Frame rate : 25.000 fps
Resolution : 8 bits
Colorimetry : 4:2:0
Scan type : Progressive
Bits/(Pixel*Frame) : 0.288
Stream size : 1.53 GiB (83%)
Writing library :
DivX 6.8.5 (UTC 2009-08-20)
Audio
ID : 1
Format : AC-3
Format/Info : Audio Coding 3
Codec ID : 2000
Duration : 2h 18mn
Bit rate mode : Constant
Bit rate : 320 Kbps
Channel(s) : 6 channels
Channel positions : Front: L C R, Surround: L R, LFE
Sampling rate : 48.0 KHz
Stream size : 317 MiB (17%)
Alignment : Split accross interleaves
Interleave, duration : 40 ms (1.00 video frame)
Interleave, preload duration : 500 ms



Visit http://www.tntvillage.org/

Related torrents

Torrent NameAddedSizeSeedLeechHealth
1 Year+ - in Music3.76 GB00
1 Year+ - in Music115.72 MB00
1 Year+ - in Music1.94 GB13
1 Year+ - in Music731.7 MB00
10 months ago - in Other90.54 MB00

Comments (0 Comments)




Please login or create a FREE account to post comments

Latest Searches

| teen latina sister | young jeezy am | K A AB | Microsoft Excel Power Of Macros In 60 rar | carolin carolin | on a holiday | conjuro 1080p | christmas ensemble | maxima fm 2015 | go the f to sleep samuel l jackson |