Quick Browse
Movies
TV shows
Music
Games
Applications
Anime
Other
Facebook
Advertising

Friends
Torrent Download
Movie4u
1337x.to
Torrent Downloads




Un.Altro.Pianeta.2008.iTALiAN.DVDRip.XviD-MvN.[ultimafrontiera]


    Seeders : 1      Leechers : 0

Trackers List

Tracker NameLast CheckStatusSeedersLeechers




Torrent File Content (1 file)


     Un.Altro.Pianeta.2008.iTALiAN.DVDRip.XviD-MvN.avi -
699.94 MB



Description



http://i35.tinypic.com/23vevc8.jpg


http://i37.tinypic.com/i35oh2.jpg


http://i36.tinypic.com/2wlzn9f.jpg


Titolo originale: Un altro pianeta
Nazione: Italia
Anno: 2008
Genere: Drammatico
Durata: 81
Regia: Stefano Tummolini
Produzione: Ripley’s Film



http://i34.tinypic.com/301n9ec.jpg


[color=#00FF00]Antonio Merone, Lucia Mascino, Francesco Grifoni, Chiara Francini, Tiziana Avarista, Saschat, Francesco Zecca[/color]

http://i33.tinypic.com/2ldeeyr.jpg


[color=orange]È una mattina d’estate, Salvatore sta percorrendo, tra le dune, il tragitto che lo porta alla spiaggia, per trascorrere un pò di tempo da solo. Di colpo si ferma, osserva l’orizzonte, mare e cielo. Ma non sarà una giornata[/color]

http://i38.tinypic.com/2ihuvd2.jpg


[color=red] L’ex sceneggiatore dei film di Ferzan Ozptek, Stefano Tummolini, debutta alla regia con un film low-cost (i costi prima della post-produzione sembrano siano stati quasi inesistenti) con una storia tanto apparentemente semplice quanto profondamente radicata nella realtà. In un pomeriggio sulla spiaggia di Capocotta ( vicino Roma), un quarantenne conosce diversi baganti. Lui, Salvatore, è omosessuale, quella è una zona di incontri e in più persone sembrano interessate al suo fisico palestrato. Tra loro anche un gruppo di ragazze tra cui emergerà Daniela, una timida ragazza che vive una silenziosa e tragica realtà.
Con tono ironico e senza indugiare troppo sugli aspetti più drammatici della vicenda, Tommolini firma una commedia dolce-amara che al festival di Venezia, dove è stata presentata tra le Giornate degli Autori, ha riscosso applausi e apprezzamenti. Merito della simpatia dei protagonisti, di alcune battute ben assestate e di un finale che nobilita ciò che lo ha preceduto. Per buona parte dell’opera infatti non è ben chiaro dove si voglia andare a parare, la sceneggiatura sembra non riuscire a trovare un modo chiaro per far comprendere, in crescendo, il dramma di Salvatore, e la critica che si fa ad una certa parte del mondo degli omosessuali (quella che vive i rapporti non in base all’affetto, ma semplicemente sull’attrazione fisica, non riuscendo a capire il dramma della solitudine e la bellezza dell’amore) risulta piuttosto stereotipata. Purtroppo oltre a questo qualche errore di montaggio abbassa, in alcuni frangenti, l’intensità del racconto à lasciando trasparire quella povertà di mezzi economici che sennò non sarebbe percepibile. Si apprezza comunque il tentativo e il coraggio del progetto, e si annota, tra i visi da scoprire, si spera, in prossimi film quelli di Antonio Merone (coautore della sceneggiatura), Lucia Mascino, Chiara Francini e Francesco Grifoni.

La frase: "Stavi in riserva!".

[/color]


http://i34.tinypic.com/1z1495e.jpg


[code]
Format : AVI
Format/Info : Audio Video Interleave
File size : 700 MiB
Duration : 1h 18mn
Overall bit rate : 1 241 Kbps
Writing application : VirtualDubMod 1.5.10.2 (build 2540/release)
Writing library : VirtualDubMod build 2540/release

Video

ID : 0
Format : MPEG-4 Visual
Format profile : [email protected]
Format settings, BVOP : Yes
Format settings, QPel : No
Format settings, GMC : No warppoints
Format settings, Matrix : Default (MPEG)
Codec ID : XVID
Codec ID/Hint : XviD
Duration : 1h 18mn
Bit rate : 783 Kbps
Width : 592 pixels
Height : 320 pixels
Display aspect ratio : 1.850
Frame rate : 25.000 fps
Resolution : 24 bits
Colorimetry : 4:2:0
Scan type : Progressive
Bits/(Pixel*Frame) : 0.165
Stream size : 442 MiB (63%)
Writing library : XviD 1.2.1 (UTC 2008-12-04)

Audio

ID : 1
Format : AC-3
Format/Info : Audio Coding 3
Codec ID : 2000
Duration : 1h 18mn
Bit rate mode : Constant
Bit rate : 448 Kbps
Channel(s) : 6 channels
Channel positions : Front: L C R, Surround: L R, LFE
Sampling rate : 48.0 KHz
Stream size : 253 MiB (36%)
Alignment : Split accross interleaves [/code]


http://i38.tinypic.com/34hbbjr.jpg


http://www.youtube.com/watch?v=5u4etKS0fmk

Related torrents

Torrent NameAddedSizeSeedLeechHealth
1 Year+ - in Movies699.94 MB34
1 Year+ - in Movies3.58 GB10
1 Year+ - in Movies700 MB3470
1 Year+ - in Movies700.01 MB1289
1 Year+ - in Other119.02 MB3911

Comments (0 Comments)




Please login or create a FREE account to post comments

Latest Searches

| emily spalding | Mechanic Resurrection 3 | Scientific American World View 2016 True PDF | Orchestral Tools Berlin EXP D SFX | rizzoli isles s06e05 720p | Top Natural Disasters | seinfeld pilot 2 | Autopsy The Last Hours Of S05E15 Cory Monteith | Bing Crosbys Christmas music | 90210 season 4 web dl |