Quick Browse
Movies
TV shows
Music
Games
Applications
Anime
Other
Facebook
Advertising

Friends
Torrent Download
Movie4u
1337x.to
Torrent Downloads




Un mercoledi da leoni [DVDrip Ita] [TNTVillage]


    Seeders : 17      Leechers : 10
Hash :387F98E4538423241A7758F7F0D7BD4861C5CED2
Added :1 Year+ in Movies
Size :660.01 MB
Stream :WATCH ONLINE @ Movie4u


Un mercoledi da leoni [DVDrip Ita] [TNTVillage]
Free and Fast Download with Usenet 300GB+ free







Trackers List

Tracker NameLast CheckStatusSeedersLeechers




Torrent File Content (1 file)


     MercolediDaLeoni.avi -
660.01 MB



Description



[url=http://forum.tntvillage.scambioetico.org/tntforum/index.php?showtopic=11057].: Click for max Info :.[/url]

.: Trama :.

Negli anni '60 tre inseparabili amici si divertono cavalcando le onde sulle spiagge della california. Il tempo passa, la vita li divide, ma le grandi onde ritornano per riunirli. Sono le celebri mareggiate dell'estate '62, autunno '65, inverno '68 e primavera '74.

.: Locandina :.

http://www.cinekolossal.com/2/m/mercoledidaleoni/poster.jpg


.: Crediti :.

* Regia: John Milius
* Sceneggiatura: Dennis Aaberg Joel Chernoff John Milius
* Fotografia: Bruce Surtees
* Cast: Jan-Michael Vincent William Katt Gary Busey Patti D'Arbanville Lee Purcell Sam Melville Darrell Fetty Gerry Lopez Hank Worden Joe Spinell Steve Kanaly Barbara Hale Fran Ryan Dennis Aaberg Reb Brown Robert Englund Keith Davis Johnny Fain Richard Dano Michael Talbott Geoff Parks Ivar Arai Titus Napoleon Frank McRae Perry Lang Michael Raden Pat Beckwith Kathy McCullen Charlene Tilton Terry Bolo Kevan Dignam Sherry Lee Marks Cindy Daly Lynn Theel Janet Julian Lorie Busk Jack Bernardi Gray Frederickson Arthur Rosenberg Stephen Mendillo Aesop Aquarian Guy Larry Finley Richard O'Bryan Todd Lookinland Gary Boyle Sascha Jensen Christopher Woods Jimmy Bracken Kevin Schultz Stacy Keach Sr. Iris Korn Ollie O'Toole Celia Kaye Clete Roberts Herb Voland John Milius Richard O'Neal Marty Thomas Robert S. Woods
* Produzione: Tamara Asseyev Buzz Feitshans Greg MacGillivray Alexandra Rose
* Colonna Sonora: Basil Poledouris
* Montaggio: Carroll Timothy O'Meara Robert L. Wolfe

========================================

.: Dati tecnici del file :.

Stream #0.0: Video: DX50, 720x304, 25.00 fps, q=0-0
Stream #0.1: Audio: mp3, 44100 Hz, stereo, 128 kb/s

Related torrents

Torrent NameAddedSizeSeedLeechHealth
Verified torrent
1 Year+ - in Movies1.37 GB24
1 Year+ - in Movies4.41 GB00
Verified torrent
1 Year+ - in Movies696.3 MB35
1 Year+ - in Movies9 GB622
Verified torrent
1 Year+ - in Movies1.37 GB995

Comments (0 Comments)




Please login or create a FREE account to post comments

Latest Searches

| olivka hevc | bound muscle | Russian clips | 1997 Hallmark 720p HDrip X264 Solar | 18onlygirls allfinegirls serena and madison karina grand were all winners 2015 | willm | shadowhunters s01e09 720p hdtv subtitulado esp sc avi | Hell Or High Water 2016 eng | n w r a fuck the police | pharrell i |