Quick Browse
Movies
TV shows
Music
Games
Applications
Anime
Other
Facebook
Advertising

Friends
Torrent Download
Movie4u
1337x.to
Torrent Downloads




Verified torrent Un mondo d'amore [DVDrip ITA] Film su P.P.Pasolini [TNT Village]


    Seeders : 7      Leechers : 1

Trackers List

Tracker NameLast CheckStatusSeedersLeechers




Torrent File Content (1 file)


     [DivX - ITA] Un mondo d'amore (Film su Pasolini).1.avi -
699.1 MB



Description



[url=http://forum.tntvillage.scambioetico.org/tntforum/index.php?showtopic=27342].: Click for max Info :.[/url]

.: Trama :.

Alla fine degli anni Quaranta Pier Paolo Pasolini (all'epoca poeta, insegnate e segretario cittadino del PCI) viene incriminato per corruzione di minorenni ed atti osceni per aver convinto, nel corso di una festa nel paesino friulano di Ramello, alcuni adolescenti ad appartarsi con lui. Senza violenza n�denunce i carabinieri procedono contro di lui sulla base di 'voci di paese'. Additato da tutti come 'depravato', Pasolini vede il suo mondo crollare di colpo. Viene espulso dal Partito e sospeso dal Provveditorato. Inoltre suo padre Carlo Alberto (eroe di guerra) cade in uno stato di comprensibile depressione. Costretto a 'cambiare aria', Pasolini parte con la madre alla volta di Roma. Qui la donna trova lavoro come domestica mentre Pier Paolo non riesce, per mesi, ad avere un impiego. In questo difficile periodo Pasolini sogna e teme che sia arrivata la fine.

.: Locandina :.

http://www.film.tv.it/imgbank/LOC/MO/02859905.jpg


.: Crediti :.

Titolo: Un mondo d'amore
Nazionalitá: Italiana
Anno: 2001
Genere: Drammatico
Regia: Aurelio Grimaldi
Data di uscita: 6/6/2003
Cast: ARTURO PAGLIA - PIER PAOLO PASOLINI
GUIA JELO SUSANNA - LA MADRE
FERNANDO PANNULLO CARLO ALBERTO - IL PADRE
GAETANO AMATO - MARESCIALLO DEI CARABINIERI

========================================

.: Dati tecnici del file :.

General

Complete name : [DivX - ITA] Un mondo d'amore (Film su Pasolini).1.avi
Format : AVI
Format/Info : Audio Video Interleave
File size : 699 MiB
Duration : 1h 24mn
Overall bit rate : 1 161 Kbps
Writing application : VirtualDubMod 1.5.4.1 (build 2178/release)
Writing library : VirtualDubMod build 2178/release

Video

Format : MPEG-4 Visual
Format settings, BVOP : Yes
Format settings, QPel : No
Format settings, GMC : No warppoints
Format settings, Matrix : Default (H.263)
Muxing mode : Packed bitstream
Codec ID : DX50
Codec ID/Hint : DivX 5
Duration : 1h 24mn
Bit rate : 1 054 Kbps
Width : 640 pixels
Height : 352 pixels
Display aspect ratio : 16:9
Frame rate : 25.000 fps
Resolution : 24 bits
Colorimetry : 4:2:0
Scan type : Progressive
Bits/(Pixel*Frame) : 0.187
Stream size : 635 MiB (91%)
Writing library : DivX 5.1.1 (Maupiti) (UTC 2003-11-19)

Audio

Format : MPEG Audio
Format version : Version 1
Format profile : Layer 3
Format_Settings_Mode : Joint stereo / MS Stereo
Codec ID : 55
Codec ID/Hint : MP3
Duration : 1h 24mn
Bit rate mode : Variable
Bit rate : 96.7 Kbps
Nominal bit rate : 96.0 Kbps
Channel(s) : 2 channels
Sampling rate : 32.0 KHz
Resolution : 16 bits
Stream size : 58.2 MiB (8%)
Alignment : Aligned on interleaves
Interleave, duration : 36 ms (0.90 video frame)
Interleave, preload duration : 529 ms
Writing library : LAME3.90.
Encoding settings : -m j -V 4 -q 2 -lowpass 15.4 --abr 96

Related torrents

Torrent NameAddedSizeSeedLeechHealth
1 Year+ - in Movies2.25 GB11
1 Year+ - in Movies692.75 MB49
1 Year+ - in Movies1.09 GB118
1 Year+ - in Movies1.37 GB00
Verified torrent
1 Year+ - in Movies935.11 MB41

Comments (0 Comments)




Please login or create a FREE account to post comments

Latest Searches

| instrumentals jay z | pay maroon 5 | ubi ita mkv s01e01 | free email generator | the carpenters only yesterday | Ableton Live Suite v9 7 0 Patched | depression disorder | ebooks pack 2016 | ubi ita mkv | the carpenters only yesterday |