Quick Browse
Movies
TV shows
Music
Games
Applications
Anime
Other
Facebook
Advertising

Friends
Torrent Download
Movie4u
1337x.to
Torrent Downloads




Verified torrent Underworld Awakening 2012 R5 FULLLiNE XviD AC3-26K


    Seeders : 1      Leechers : 0
Hash :DBAE2782FB27A8E18D1ADFFC4CC3F9C0D98FFCE0
Added :1 Year+ by memory100Verified torrent uploader in Movies
Size :1.4 GB
Stream :WATCH ONLINE @ Movie4u


Underworld Awakening 2012 R5 FULLLiNE XviD AC3-26K
Free and Fast Download with Usenet 300GB+ free







Trackers List

Tracker NameLast CheckStatusSeedersLeechers




Torrent File Content (8 files)


Underworld Awakening 2012 R5 FULLLiNE XviD AC3-26K
     HDSceneRG.txt -
115 bytes

     Torrent downloaded from Demonoid.me.txt -
46 bytes

     Torrent downloaded from rarbg.com.txt.txt -
0 bytes

     Underworld Awakening 2012 R5 FULLLiNE XviD AC3-26K (1).avi -
1.38 GB

     Underworld Awakening 2012 R5 FULLLiNE XviD AC3-26K.nfo -
3.51 KB

     att-networks.com.txt -
39 bytes

     sample.avi -
16.93 MB

     sceneunderground.org.txt -
77 bytes



Description



http://i.imgur.com/K18df.jpg

[code]
Underworld Awakening 2012 R5 FULLLiNE XviD AC3-26K

Imdb:
http://www.imdb.com/title/tt1496025/

Plot:
When human forces discover the existence of the Vampire and Lycan clans, a war to eradicate both species commences. The vampire warrioress Selene leads the battle against humankind.

Sources:
VIDEO-VOBS-Lum1x- THNXS MAN
AUDIO-SIC!!! THNXS MAN!!

Notes:
THNXS TO Lum1x- AND SIC !! you both rock!!
encoded the video of vobs then muxed the audio onto our encode so enjoy:P

Greetz:
Xtreme Encode|FYA|ILLUMANTI|CM8|RX|VISION|HDSCENE|NIGHTMAREZ|xTriLL|DTRG|CRYS|REMIXHD|BIDA|RX|REFILL|INSPiRAL|SIC|ZOMBIESZ|HOPE|Anonymous|GooN
To all the people who have helped me :P you know who you are

Anything to offer email us @: [email protected]

Video
ID : 0
Format : MPEG-4 Visual
Format profile : Advanced [email protected]
Format settings, BVOP : No
Format settings, QPel : No
Format settings, GMC : No warppoints
Format settings, Matrix : Custom
Codec ID : XVID
Codec ID/Hint : XviD
Duration : 1h 25mn
Bit rate : 1 926 Kbps
Width : 720 pixels
Height : 304 pixels
Display aspect ratio : 2.35:1
Frame rate : 25.000 fps
Color space : YUV
Chroma subsampling : 4:2:0
Bit depth : 8 bits
Scan type : Progressive
Compression mode : Lossy
Bits/(Pixel*Frame) : 0.352
Stream size : 1.15 GiB (83%)
Writing library : XviD 64

Audio
ID : 1
Format : AC-3
Format/Info : Audio Coding 3
Mode extension : CM (complete main)
Codec ID : 2000
Duration : 1h 25mn
Bit rate mode : Constant
Bit rate : 384 Kbps
Channel(s) : 2 channels
Channel positions : Front: L R
Sampling rate : 44.1 KHz
Bit depth : 16 bits
Compression mode : Lossy
Stream size : 234 MiB (17%)
Alignment : Aligned on interleaves
Interleave, duration : 70 ms (1.74 video frames)
Interleave, preload duration : 208 ms
Title : Underworld.Awakening.2012

[/code]
Screens:
http://i.imgur.com/5KnNr.png

http://i.imgur.com/cgX5D.png

http://i.imgur.com/GkAIx.png

http://i.imgur.com/kPytt.png

http://i.imgur.com/XQtbR.png

http://i.imgur.com/GwfWn.png

http://i.imgur.com/jDssd.png

http://i.imgur.com/x6MeO.png

http://i.imgur.com/POIhe.png

http://i.imgur.com/4Nmdt.png

http://i.imgur.com/XVIQM.png

http://i.imgur.com/62X4p.png

http://i.imgur.com/LkxUy.png


http://img851.imageshack.us/img851/5503/26ks.jpg

Thank you smallz for banner!

Related torrents

Torrent NameAddedSizeSeedLeechHealth
1 Year+ - in Movies1.36 GB4265
1 Year+ - in Movies1.6 GB00
1 Year+ - in Movies1.36 GB11
1 Year+ - in Movies711.82 MB55210
1 Year+ - in Movies1.59 GB29

Comments (0 Comments)




Please login or create a FREE account to post comments

Latest Searches

| rachel maddow 2016 10 11 | Penny Daddy | the big tip | last witch hunter hdrip xvid ac3 evo | trucks in texas | The Vampire Diaries S01E12 720p HDTV x264 mkv | red lips TO CO NAM BY O | 50 cent straight to the bank dvdrip xvid avi | martin garrix vs matisse sadko break through the silence original mix wav visionaire | brokemodel Holly D |