Quick Browse
Movies
TV shows
Music
Games
Applications
Anime
Other
Facebook
Advertising

Friends
Torrent Download
Movie4u
1337x.to
Torrent Downloads




Verified torrent Unknown (2011) DVDRip XviD-MAXSPEED


    Seeders : 1312      Leechers : 298
Hash :2AEDB99B1E79E776433EECBEC675C84704677124
Added :1 Year+ by piratepediaVerified torrent uploader in Movies
Size :1.25 GB
Stream :WATCH ONLINE @ Movie4u


Unknown (2011) DVDRip XviD-MAXSPEED
Free and Fast Download with Usenet 300GB+ free







Trackers List

Tracker NameLast CheckStatusSeedersLeechers




Torrent File Content (8 files)


Unknown (2011) DVDRip XviD-MAXSPEED
     Unknown (2011) DVDRip XviD-MAXSPEED www.torentz.3xforum.ro.avi -
1.24 GB

     sample.avi -
10.18 MB

     screencaps.jpeg -
141.6 KB

     Unknown (2011) DVDRip XviD-MAXSPEED.nfo -
2.81 KB

     Torrent downloaded from Demonoid.me.txt -
46 bytes

     Torrent downloaded from Extratorrent.com.txt -
40 bytes

     Torrent downloaded from Rarbg.com.txt -
33 bytes

     Torrent downloaded from h33t.com.txt -
32 bytes



Description



http://leetleech.org/images/92933828603142128960.jpg


Screens:

http://leetleech.org/images/53108113943183200260.jpg

http://leetleech.org/images/36528246425516097835.jpg

http://leetleech.org/images/21212651735153674999.jpg

http://leetleech.org/images/64191555515666135925.jpg

http://leetleech.org/images/44870558030289109478.jpg


Alternative:

[code]http://www.postimg.com/image/38000/photo-37199.jpg
http://www.postimg.com/image/38000/photo-37200.jpg
http://www.postimg.com/image/38000/photo-37201.jpg
http://www.postimg.com/image/38000/photo-37202.jpg
http://www.postimg.com/image/38000/photo-37203.jpg[/code]

ScreenCaps:

http://www.postimg.com/38000/photo-37204.jpg


[code]Unknown (2011) DVDRip XviD-MAXSPEED
Format : AVI
Format/Info : Audio Video Interleave
Format profile : OpenDML
File size : 1.24 GiB
Duration : 1h 48mn
Overall bit rate : 1 639 Kbps
Writing application : VirtualDubMod 1.5.10.2 (build 2542/release)
Writing library : VirtualDubMod build 2542/release
Original source form : MAX TORRENTZ
Copyright : SIGISMUNT

Video
ID : 0
Format : MPEG-4 Visual
Format profile : [email protected]
Format settings, BVOP : Yes
Format settings, QPel : No
Format settings, GMC : No warppoints
Format settings, Matrix : Custom
Codec ID : XVID
Codec ID/Hint : XviD
Duration : 1h 48mn
Bit rate : 1 385 Kbps
Width : 720 pixels
Height : 304 pixels
Display aspect ratio : 2.35:1
Frame rate : 25.000 fps
Resolution : 24 bits
Colorimetry : 4:2:0
Scan type : Progressive
Bits/(Pixel*Frame) : 0.258
Stream size : 1.07 GiB (86%)
Writing library : XviD 58

Audio
ID : 1
Format : MPEG Audio
Format version : Version 1
Format profile : Layer 3
Codec ID : 55
Codec ID/Hint : MP3
Duration : 1h 48mn
Bit rate mode : Constant
Bit rate : 224 Kbps
Channel(s) : 2 channels
Sampling rate : 48.0 KHz
Resolution : 16 bits
Stream size : 174 MiB (14%)
Alignment : Aligned on interleaves
Interleave, duration : 541 ms (13.52 video frames)
Interleave, preload duration : 216 ms
Writing library : LAME3.98.2

Source: PAL vobs + filtered audio (additional volume,perfect a/v/sync quality,
sample included,english hardcoded subtitle on few original foreign parts)
This release is not seedbox supported , please seed it to the MAX

How To Get Your Maxspeed (uTorrent)

Torrent Client - Preferences - Bandwidth - Number of connections - Set aprox. 500 for each
Torrent Client - Preferences - BiTorrent - Protocol Encryption - Forced
Bandwidth Allocation - High (Set download/upload limit - Unlimited)
Stop Other Active Torrents - Start downloading and wait for connections.
Enjoy and Seed for at least 1:1 ratio. Don't forget to say thanks/leave reviews.
Before downloading you should check/google search sample "release name""sample".
Greets to all actual/future p2p/scene QUALITY groups and affiliate websites.
Don't trust IMDb robot or bad ratings,always watch some trailers first.
Ignore stupid comments/fake/mislabeled/no-DVDrips/CAM/TS/RAR uploads.
Please spread this release/torrent to your friends/forums/etc.
If you need translation subs visit some subtitles sites.
Report if you see online streaming or other spam links.
Recommended movie player VLC PLAYER.[/code]

Related torrents

Torrent NameAddedSizeSeedLeechHealth
3 months ago - in Movies967.85 MB00
4 months ago - in Movies1.16 GB00
6 months ago - in Other6.24 GB00
1 Good
Verified torrent
1 Year+ - in Movies1.15 GB644
8 months ago - in Movies854.55 MB00

Comments (1 comment)




BezzzzZ
» Downloaded this torrent Downloaded this torrent » Voted Good Voted Good for this torrent for this torrent

Added 1 Year+
Very fast download, no issues video and audio perfect

A:10 V:10
Please login or create a FREE account to post comments

Latest Searches

| 2016 | Cheerleaders Part I | Air bud hindi | 1986 Master Of Puppets | dying ft lil wayne | GRID 2 v 1 0 82 5097 4 DLC 6 Mods 2013 PC RePack R G REVOLUTiON | Setup 2011 720p BRRip | Phil Collins The Singles Deluxe Edition 2016 by emi | ExtremeLadyboys Toto Red Ridinghood and One Horny Wolf | the unbeatable squirrel girl 005 2015 digital minutemen midas cbr |