Quick Browse
Movies
TV shows
Music
Games
Applications
Anime
Other
Facebook
Advertising

Friends
Torrent Download
Movie4u
1337x.to
Torrent Downloads




Verified torrent Unthinkable [DVD] [ENG] [AC3] [Hannspree]


    Seeders : 8      Leechers : 1
Hash :487E0EE7B99BF5843C54B9937E8FBF2B0812304D
Added :1 Year+ by HannspreeVerified torrent uploader in Movies
Size :1.43 GB
Stream :WATCH ONLINE @ Movie4u


Unthinkable [DVD] [ENG] [AC3] [Hannspree]
Free and Fast Download with Usenet 300GB+ free







Trackers List

Tracker NameLast CheckStatusSeedersLeechers




Torrent File Content (16 files)


Unthinkable
    Unthinkable [DVD]
          VIDEO_TS/VIDEO_TS.BUP -
12 KB

          VIDEO_TS/VIDEO_TS.IFO -
12 KB

          VIDEO_TS/VIDEO_TS.VOB -
58 KB

          VIDEO_TS/VTS_01_0.BUP -
68 KB

          VIDEO_TS/VTS_01_0.IFO -
68 KB

          VIDEO_TS/VTS_01_0.VOB -
58 KB

          VIDEO_TS/VTS_01_1.VOB -
1023.97 MB

          VIDEO_TS/VTS_01_2.VOB -
439.48 MB

    Unthinkable [Screens]
          Unthinkable [Screens].jpg -
121.64 KB

     Torrent downloaded from Ahashare.com.txt -
47 bytes

     Torrent downloaded from Demonoid.com.txt -
47 bytes

     Torrent downloaded from Genesis-sp.org.txt -
49 bytes

     Torrent downloaded from H33t.org.txt -
43 bytes

     Torrent downloaded from Limetorrents.com.txt -
51 bytes

     Torrent downloaded from Torrentsnet.com.txt -
48 bytes

     Unthinkable.NFO -
4.12 KB



Description



=====================================================================================
[ Another free, high quality, ready to burn DVD I will be adding new torrents on a daily basis - Remember to seed ]
=====================================================================================
MOVIE TITLE: Unthinkable
LANGUAGE: English
MOVIE SUBS: No - (subtitles if/when required)
BURN TESTED: Yes
FORMAT: Pal
GENRE: Drama | Thriller
RUNTIME: 97 Minutes
YEAR: 2010
IMDB LINK: http://www.imdb.com/title/tt0914863/
=====================================================================================
MOVIE DESC:

The story of a white american muslim, who claims to have planted three nuclear bombs in large cities of the US, threatening to kill millions. He is interrogated and tortured by an 'agent' who uses every possible mean to crack him into revealing the location of the bombs. It's a hard and brutal 'game', which challenges ever possible definition of right and wrong, as well as lawful versus criminal behaviours how far would you go, based on a 1% chance the the bombs really exist and may kills millions, to protect those? And when even the most brutal acts of torture don't break your subject, what becomes the next 'unthinkable' boundary of human decency, which marks the difference between the terrorists and the order? Where do you stop? The movie goes really far in asking these questions and correctly leaves the answers to each viewer for him/herself.
=====================================================================================
MOVIE SPECS:

GENERAL:
Complete name : Unthinkable
Format : MPEG-PS
File size : 1.42 GB
Duration : 97 Minutes
Overall bit rate : 2 151 Kbps

VIDEO:
ID : 224 (0xE0)
Format : MPEG Video
Format version : Version 2
Format profile : [email protected]
Format settings, BVOP : Yes
Format settings, Matrix : Default
Duration : 97 Minutes
Bit rate mode : Variable
Bit rate : 1 916 Kbps
Nominal bit rate : 9 608 Kbps
Width : 720 pixels
Height : 576 pixels
Display aspect ratio : 16:9
Frame rate : 24.000 fps
Standard : PAL
Color space : YUV
Chroma subsampling : 4:2:0
Bit depth : 8 bits
Scan type : Progressive
Scan order : 2:2:2:2:2:2:2:2:2:2:2:3 Pulldown
Bits/(Pixel*Frame) : 0.193
Stream size : 912 MiB (89%)

AUDIO:
ID : 128 (0x80)
Format : AC-3
Format/Info : Audio Coding 3
Mode extension : CM (complete main)
Duration : 97 Minutes
Bit rate mode : Constant
Bit rate : 192 Kbps
Channel(s) : 2 channels
Channel positions : Front: L R
Sampling rate : 48.0 KHz
Stream size : 91.4 MiB (9%)
=====================================================================================
TRACKERS:
http://inferno.demonoid.com:3400/announce
http://pow7.com/announce
http://publicbt.ath.cx/announce
http://tracker.torrentbox.com:2710/announce
http://atrack.pow7.com/announce
http://denis.stalker.h3q.com:6969/announce
http://nemesis.1337x.org/announce
http://exodus.1337x.org/announce
http://tracker.publicbt.com/announce
http://10.rarbg.com/announce
http://tracker.ilibr.org:6969/announce
http://rt.beeretracker.net/announce.php
=====================================================================================
FOOT NOTE:
If you are happy with this download, it would be nice to hear your views or comments that you might have. Enjoy
=====================================================================================

Related torrents

Torrent NameAddedSizeSeedLeechHealth
Verified torrent
1 Year+ - in Movies1.36 GB129
Verified torrent
1 Year+ - in Movies1.34 GB56
Verified torrent
1 Year+ - in Movies1.7 GB186
Verified torrent
1 Year+ - in Movies1.53 GB62
Verified torrent
1 Year+ - in Movies2.01 GB12

Comments (0 Comments)




Please login or create a FREE account to post comments

Latest Searches

| The Wrath of Cain | big tits sucks | isabella sorrenti amarna miller | The Bold And The Beautiful Ep7475 | WWE TLC HD | Jaye Summers hushpass | a drive by trae | The Walking Dead The Complete Season 3 HDTV 480p | uncensored mix | toxic lol ral |