Quick Browse
TV shows

Latest Articles

Torrent Download
Free Movies
Torrent Downloads

Verified torrent Unthinkable 2010 DVDRip Xvid AC3-*THC*

    Seeders : 61      Leechers : 66

Hash :AEB74A66AA1CD55A75970E7C7F80390BC90A6626
Added :1 Year+ by striker123Verified torrent uploader in Movies
Size :1.49 GB
Stream :Watch Online Full Movie @ Movie4u
Share :

Unthinkable 2010 DVDRip Xvid AC3-*THC*
Download Direct And Anonymously

Warning! Do not Download Torrents Without a VPN!
Your IP Address is .   And Location is
Your Internet Provider and Government can track your torrent Activity!  Hide your IP ADDRESS with a VPN!
We Strongly Recommend Using CyberGhost VPN to Anonymize your Torrenting.

Note :

Please Update (Trackers Info) Before Downloading Torrents to See Updated Seeders And Leechers for Batter Download Speed.

Trackers List

Tracker NameLast CheckStatusSeedersLeechers

Torrent File Content (4 files)

Unthinkable DVDRip Xvid AC3-THC
          Unthinkable DVDRip Xvid AC3 Sample-THC.avi -
40.03 MB

          VTS_01_0 english.idx -
128.02 KB

          VTS_01_0 english.sub -
11.78 MB

     Unthinkable DVDRip Xvid AC3-THC.avi -
1.44 GB




Complete name : E:\Unthinkable DVDRip Xvid AC3-THC\Unthinkable DVDRip Xvid AC3-THC.avi
Format : AVI
Format/Info : Audio Video Interleave
Format profile : OpenDML
File size : 1.44 GiB
Duration : 1h 45mn
Overall bit rate : 1 952 Kbps
Writing application : AVI-Mux GUI, Feb 16 201019:42:50

ID : 0
Format : MPEG-4 Visual
Format profile : Advanced [email protected]
Format settings, BVOP : Yes
Format settings, QPel : No
Format settings, GMC : No warppoints
Format settings, Matrix : Default (MPEG)
Codec ID : XVID
Codec ID/Hint : XviD
Duration : 1h 45mn
Bit rate : 1 499 Kbps
Width : 720 pixels
Height : 384 pixels
Display aspect ratio : 1.875
Frame rate : 23.976 fps
Color space : YUV
Chroma subsampling : 4:2:0
Bit depth : 8 bits
Scan type : Progressive
Bits/(Pixel*Frame) : 0.226
Stream size : 1.11 GiB (77%)
Writing library : XviD 1.2.1 (UTC 2008-12-04)

ID : 1
Format : AC-3
Format/Info : Audio Coding 3
Mode extension : CM (complete main)
Codec ID : 2000
Duration : 1h 45mn
Bit rate mode : Constant
Bit rate : 448 Kbps
Channel(s) : 6 channels
Channel positions : Front: L C R, Side: L R, LFE
Sampling rate : 48.0 KHz
Bit depth : 16 bits
Stream size : 339 MiB (23%)
Alignment : Aligned on interleaves
Interleave, duration : 64 ms (1.53 video frames)
Interleave, preload duration : 192 ms
Title : VTS_01_1 T81 3_2ch 448Kbps DELAY 0ms

Actors: Samuel L. Jackson, Carrie-Anne Moss, Michael Sheen, Stephen Root, Lora Kojovic
Directors: Gregor Jordan
Writers: Peter Woodward
Producers: Bill Perkins, Caldecot Chubb, Marco Weber, Rachel Rose, Samson Mucke
Language: English
Subtitles: English
Rated: R (Restricted)
Studio: Sony Pictures
DVD Release Date: June 15, 2010
Run Time: 97 minutes
Sample Included: Yes



The most suspenseful thriller of the year explores just how far we will go to protect ourselves and our country. When a nuclear expert-turned-extremist (Michael Sheen, Underworld) plants devices in three separate cities, the country's counter-terrorism force springs into action and captures him. But the location of his bombs remains a mystery. With time running out, FBI agent Helen Brody (Carrie-Anne Moss, Disturbia) agrees to work alongside a mysterious interrogator known only as "H" (Samuel L. Jackson, Lakeview Terrace), whose ruthless methods get results. But a power struggle develops between Brody, "H', and the terrorist, and what happens next is unbelievable and -ultimately-Unthinkable!






Related torrents

Torrent NameAddedSizeSeedLeechHealth
1 Year+ - in Movies3.99 GB00
1 Year+ - in Movies1.25 GB00
1 Year+ - in Movies1.46 GB00
1 Year+ - in Movies1.38 GB00
1 Year+ - in Movies1.39 GB00

Note :

Feel free to post any comments about this torrent, including links to Subtitle, samples, screenshots, or any other relevant information. Please Dont Download anything from Comments, And Dont Post Links to Streaming Sites like Fmovies, Xmovies8, 123Movies, GoMovies, CMovieshd, Solarmovie, Watchfree, Putlockers, GoStream, m4ufree etc.

Comments (0 Comments)

Please login or create a FREE account to post comments

Latest Searches

| mentalist season 7 episode 6 | Brain Eno 1993 Brian Eno Box II Vocal Out of print box set | long haul jeff kinney | The Walking Dead Episode 1 5 and 400 Days | OmniFocus 2 2 5 | 2017 720p sinners | The Monkey King 2 2016 720p | Windows Server 3 | MK Movin | gippi full movie 2013 |