Quick Browse
Movies
TV shows
Music
Games
Applications
Anime
Other
Facebook
Advertising

Friends
Torrent Download
Movie4u
1337x.to
Torrent Downloads




Verified torrent Usher ft Pitbull - DJ Got Us Fallin In Love Again [KingPinVideos]


    Seeders : 99      Leechers : 14

Trackers List

Tracker NameLast CheckStatusSeedersLeechers




Torrent File Content (4 files)


Usher ft Pitbull - DJ Got Us Fallin In Love Again [KingPinVideos]
     Usher ft Pitbull - DJ Got Us Fallin In Love Again [KingPinVideos].mpg -
85.57 MB

     Usher ft Pitbull - DJ Got Us Fallin In Love Again [KingPinVideos].nfo -
1.95 KB

     Usher ft Pitbull - DJ Got Us Fallin In Love Again [KingPinVideos].txt -
1.65 KB

     Torrent downloaded from Demonoid.com.txt -
47 bytes



Description



http://a.imageshack.us/img299/9056/usherdj.png


http://a.imageshack.us/img163/6535/usherdj2.png


[code]General
Complete name : Usher ft Pitbull - DJ Got Us Fallin In Love Again [KingPinVideos].mpg
Format : MPEG-PS
File size : 85.6 MiB
Duration : 4mn 11s
Overall bit rate : 2 856 Kbps
Writing library : encoded by TMPGEnc 4.0 XPress Version. 4.7.4.299

Video
ID : 224 (0xE0)
Format : MPEG Video
Format version : Version 1
Format settings, BVOP : Yes
Format settings, Matrix : Default
Duration : 4mn 11s
Bit rate mode : Constant
Bit rate : 2 615 Kbps
Nominal bit rate : 2 700 Kbps
Width : 384 pixels
Height : 208 pixels
Display aspect ratio : 16:9
Frame rate : 29.970 fps
Resolution : 8 bits
Scan type : Progressive
Bits/(Pixel*Frame) : 1.092
Stream size : 78.3 MiB (92%)
Writing library : TMPGEnc XPress 4.7.4.299

Audio
ID : 192 (0xC0)
Format : MPEG Audio
Format version : Version 1
Format profile : Layer 2
Duration : 4mn 11s
Bit rate mode : Constant
Bit rate : 128 Kbps
Channel(s) : 2 channels
Sampling rate : 48.0 KHz
Stream size : 3.83 MiB (4%)[/code]

Related torrents

Torrent NameAddedSizeSeedLeechHealth
1 Year+ - in Music8.49 MB20
1 Year+ - in Other106.42 MB10
1 Year+ - in Music8.51 MB04
1 Year+ - in Music6.04 MB24
1 Year+ - in Music8.52 MB10

Comments (0 Comments)




Please login or create a FREE account to post comments

Latest Searches

| ouija origin of evil 720p mkv | The Desperate Mission 1969 | naruto 478 multi | 2015 10 january | freddy heineken ita | The Flash S03E09 web | star wars the force unleashed 2009 pc | dance vegas | The Daily Show with Trevor Noah 2016 09 12 WEB x264 Nada | jules vernes mysterious |