Quick Browse
Movies
TV shows
Music
Games
Applications
Anime
Other
Facebook
Advertising

Friends
Torrent Download
Movie4u
1337x.to
Torrent Downloads




Vaana (2008) Telugu Movie - teluguppls


    Seeders : 2      Leechers : 1
Hash :89E7415384A9B1AF77E8CDB0693578C8952B44A5
Added :1 Year+ by narayanroyal in Movies
Size :694.79 MB
Stream :WATCH ONLINE @ Movie4u


Vaana (2008) Telugu Movie - teluguppls
Free and Fast Download with Usenet 300GB+ free







Trackers List

Tracker NameLast CheckStatusSeedersLeechers
http://pow7.com/announce3 months agosuccess21
udp://tracker.ilibr.org:6969/announce3 months agosuccess10
udp://tracker.coppersurfer.tk:803 months agosuccess10
udp://9.rarbg.com:2710/announce3 months agosuccess00
http://tracker.nwps.ws:6969/announce3 months agosuccess00
http://tracker.trackerfix.com/announce3 months agosuccess00
http://bigfoot1942.sektori.org:6969/announce3 months agosuccess00
http://torrent.gresille.org/announce3 months agosuccess00




Torrent File Content (2 files)


Vaana (2008) DvdRip
     Vaana (2008) DVDRip.avi -
694.79 MB

     TELUGUPPLS.BLOGSPOT.COM.txt -
2.61 KB



Description



Vaana (2008) Telugu Movie - teluguppls



General

Format : AVI
File size : 695 MiB
Duration : 2h 18mn
Overall bit rate : 699 Kbps


Video

Format : MPEG-4 Visual
Format settings, Matrix : Default (H.263)
Codec ID : XVID
Codec ID/Hint : XviD
Duration : 2h 18mn
Bit rate : 627 Kbps
Width : 608 pixels
Height : 256 pixels
Display aspect ratio : 2.35:1
Frame rate : 23.976 fps
Color space : YUV
Chroma subsampling : 4:2:0
Bit depth : 8 bits
Scan type : Progressive
Compression mode : Lossy
Bits/(Pixel*Frame) : 0.168
Stream size : 623 MiB (90%)


Audio

Format : MPEG Audio
Codec ID/Hint : MP3
Duration : 2h 18mn
Bit rate mode : Constant
Bit rate : 64.0 Kbps
Channel(s) : 1 channel
Sampling rate : 48.0 KHz
Compression mode : Lossy
Stream size : 63.6 MiB (9%)
Alignment : Aligned on interleaves
Interleave, duration : 24 ms (0.58 video frame)
Interleave, preload duration : 192 ms


PLEASEEEE SEEEEEEEDDDDDDDDDDDDDDD...................

POST A COMMENT................

Related torrents

Torrent NameAddedSizeSeedLeechHealth
1 Year+ - in Movies1.21 GB00
1 Year+ - in Movies3.74 GB01
1 Year+ - in Movies4.58 GB02
1 Year+ - in Movies764.18 MB01
Verified torrent
1 Year+ - in Movies700.32 MB01

Comments (0 Comments)




Please login or create a FREE account to post comments

Latest Searches

| Barcelona Bombshell | Jimmy Kimmel 2016 12 08 Jennifer Aniston HDTV x264 CROOKS | sway xxx | f html | DiaryOfANanny Holly Heart Remy Lacroix | hooker urban | taylor may swallowsalon | The Janitor 2014 | infinite home alcott | ulisse il lungo viaggio |