Quick Browse
Movies
TV shows
Music
Games
Applications
Anime
Other
Facebook
Friends
Torrent Download
Movie4u
1337x.to
Torrent Downloads

Verified torrent Vampires Suck[2010]WPScR-LW


    Seeders : 1544      Leechers : 197
Hash :56D929A38D95DB50A69B5FE5470B425EA2C33E1E
Added :1 Year+ by XoLWoXVerified torrent uploader in Movies
Size :595.39 MB
Stream :WATCH ONLINE @ Movie4u


Vampires Suck[2010]WPScR-LW
Anonymous and Direct Download 300GB+ free








Trackers List

Tracker NameLast CheckStatusSeedersLeechers




Torrent File Content (7 files)


Vampires Suck[2010]WPScR-LW
    Cover
          VS-Cover.jpg -
771.13 KB

    Info
          Movie Info.nfo -
14.61 KB

          Movie Info.txt -
3.12 KB

    Movie
          Vampires Suck[2010]WPScR-LW.avi -
594.62 MB

    Trackers
          Torrent downloaded from AhaShare.com.txt -
59 bytes

          tracked_by_l33t.cz.cc.txt -
25 bytes

          tracked_by_h33t_com.txt -
23 bytes



Description



http://i38.tinypic.com/bg9oqa.jpg

[color=red]-------------------------------------------------[/color]
http://i48.tinypic.com/k13v48.jpg

[color=red]-------------------------------------------------[/color]
File Name : Vampires Suck[2010]WPScR-LW
Type : Movie
Format : AVI
File Size : 594 MB
Duration : 01:16:30
Language : English
Source : DvD
Subtitles : None
Genre : Comedy
IMDB Link : http://www.imdb.com/title/tt1666186/
Downloaded : http://www.l33t.cz.cc
[color=red]-------------------------------------------------[/color]
http://i46.tinypic.com/5n13z8.jpg

[color=red]-------------------------------------------------[/color]
Format : MPEG-4 Visual
Format profile : Advanced [email protected]
Format settings, BVOP : Yes
Format settings, QPel : No
Format settings, GMC : No warppoints
Format settings, Matrix : Default (H.263)
Muxing mode : Packed bitstream
Codec ID : XVID
Codec ID/Hint : XviD
Duration : 1h 16mn
Bit rate : 885 Kbps
Width : 720 pixels
Height : 290 pixels
Display aspect ratio : 2.483
Frame rate : 23.976 fps
Resolution : 8 bits
Colorimetry : 4:2:0
Scan type : Progressive
Bits/(Pixel*Frame) : 0.177
Stream size : 484 MiB (81%)
Writing library : XviD 1.2.0
[color=red]-------------------------------------------------[/color]
http://i45.tinypic.com/14lof2g.jpg

[color=red]-------------------------------------------------[/color]
Format : AC-3
Format/Info : Audio Coding 3
Codec ID : 2000
Duration : 1h 16mn
Bit rate mode : Constant
Bit rate : 192 Kbps
Channel(s) : 2 channels
Channel positions : L R
Sampling rate : 48.0 KHz
Video delay : 24ms
Stream size : 105 MiB (18%)
Alignment : Split accross interleaves
Interleave, duration : 42 ms (1.00 video frame)
Interleave, preload duration : 500 ms
[color=red]-------------------------------------------------[/color]
http://i46.tinypic.com/16ih2fo.jpg

[color=red]-------------------------------------------------[/color]
From the creators of Disaster Movie and Meet the
Spartans comes a spoof of pop culture and teenage
vampire movies starring Jenn Proske as Becca, a
high schooler who must choose between two hunky
boys who both have killer smiles. While surrounded
by vampires, werewolves (wereChihuahuas, anyone?)
and gossipy teens with their own romantic dilemmas,
the neurotic Becca also copes with her overprotective
father and the school's impending prom.

Cast: Jenn Proske, Matt Lanter

Director: Jason Friedberg
[color=red]-------------------------------------------------[/color]
http://i36.tinypic.com/n5rpz.jpg

http://i49.tinypic.com/2vi137p.jpg

http://i38.tinypic.com/2zpmav4.jpg

http://i37.tinypic.com/5kltfl.jpg

http://i38.tinypic.com/2dv535d.jpg

http://i35.tinypic.com/p7tbo.jpg

http://i38.tinypic.com/14mb59z.jpg

Related torrents

Torrent NameAddedSizeSeedLeechHealth
1 Year+ - in Movies1.47 GB36
10 months ago - in Movies1.02 GB00
10 months ago - in Other1.6 GB00
10 months ago - in Movies1.06 GB00
1 Year+ - in Movies7.94 GB00

Comments (0 Comments)




Please login or create a FREE account to post comments

Latest Searches

| natural gang | 2016 MOTO3 RACE ARAGON | Fifa 2017 | the shins discography 128 kbps by monkeyfied | the chainsmokers the one | kendrick lamar part 5 | lupin fujiko 13 | Uncensored LAFBD | friends season 1 1 complete | complete season monk |