Quick Browse
Movies
TV shows
Music
Games
Applications
Anime
Other
Facebook
Advertising

Friends
Torrent Download
Movie4u
1337x.to
Torrent Downloads




Verified torrent Van Diemens Land [DVD5] [ENG] [AC3] [Hannspree]


    Seeders : 2      Leechers : 66
Hash :6C240B1C423583AA8C97E6DE6FB70DFE7ECDD9E8
Added :1 Year+ by HannspreeVerified torrent uploader in Movies
Size :1.76 GB
Stream :WATCH ONLINE @ Movie4u


Van Diemens Land [DVD5] [ENG] [AC3] [Hannspree]
Free and Fast Download with Usenet 300GB+ free







Trackers List

Tracker NameLast CheckStatusSeedersLeechers




Torrent File Content (13 files)


Van Dieman Island
    Van Diemens Land
          Van Diemens Land [DVD]/VIDEO_TS/VIDEO_TS.BUP -
12 KB

          Van Diemens Land [DVD]/VIDEO_TS/VIDEO_TS.IFO -
12 KB

          Van Diemens Land [DVD]/VIDEO_TS/VIDEO_TS.VOB -
58 KB

          Van Diemens Land [DVD]/VIDEO_TS/VTS_01_0.BUP -
68 KB

          Van Diemens Land [DVD]/VIDEO_TS/VTS_01_0.IFO -
68 KB

          Van Diemens Land [DVD]/VIDEO_TS/VTS_01_0.VOB -
58 KB

          Van Diemens Land [DVD]/VIDEO_TS/VTS_01_1.VOB -
1023.97 MB

          Van Diemens Land [DVD]/VIDEO_TS/VTS_01_2.VOB -
777.78 MB

          Van Diemens Land [Images]/Van Diemens Land [Cover].jpg -
49.37 KB

          Van Diemens Land [Images]/Van Diemens Land [Disc].jpg -
27.73 KB

          Van Diemens Land [Images]/Van Diemens Land [Screens].jpg -
152.65 KB

     Torrent downloaded from H33T.org.txt -
43 bytes

     Van Diemens Land.NFO -
3.38 KB



Description



=====================================================================================
[ Another free, high quality, ready to burn DVD I will be adding new torrents on a daily basis - Remember to seed ]
=====================================================================================
MOVIE TITLE: Van Diemens Land (Island)
LANGUAGE: English
MOVIE SUBS: No
BURN TESTED: Yes
FORMAT: Pal
GENRE: Drama | History
RUNTIME: 104 Minutes
YEAR: 2009
IMDB LINK: http://www.imdb.com/title/tt1361843/
=====================================================================================
MOVIE DESC:

The true story of Alexander Pearce, Australia's most notorious convict. In 1822, Pearce and seven fellow convicts escaped from Macquarie Harbour, a place of ultra banishment and punishment, only to find a world less forgiving the Australian wilderness. Abandon all hope you who enter.
=====================================================================================
MOVIE SPECS:

GENERAL:
Complete name : Van Dieman Island [DVD5]
Format : MPEG-PS
File size : 1.75 GB
Duration : 104 Minutes
Overall bit rate : 2 697 Kbps

VIDEO:
ID : 224 (0xE0)
Format : MPEG Video
Format version : Version 2
Format profile : [email protected]
Format settings, BVOP : Yes
Format settings, Matrix : Default
Duration : 104 Minutes
Bit rate mode : Variable
Bit rate : 2 452 Kbps
Nominal bit rate : 9 608 Kbps
Width : 720 pixels
Height : 576 pixels
Display aspect ratio : 16:9
Frame rate : 25.000 fps
Standard : PAL
Color space : YUV
Chroma subsampling : 4:2:0
Bit depth : 8 bits
Scan type : Progressive
Bits/(Pixel*Frame) : 0.236
Stream size : 931 MiB (91%)

AUDIO:
ID : 128 (0x80)
Format : AC-3
Format/Info : Audio Coding 3
Mode extension : CM (complete main)
Duration : 104 Minutes
Bit rate mode : Constant
Bit rate : 192 Kbps
Channel(s) : 2 channels
Channel positions : Front: L R
Sampling rate : 48.0 KHz
Stream size : 72.9 MiB (7%)
=====================================================================================
TRACKERS:
http://fr33dom.h33t.com:3310/announce
http://exodus.1337x.org/announce
http://tracker.ilibr.org/announce
http://tpb.tracker.prq.to/announce
http://red.tracker.prq.to/announce
http://tracker.openbittorrent.com/announce
http://gemini.tracker.prq.to/announce
http://11.rarbg.com/announce
http://tracker.publicbt.org/announce
=====================================================================================
[FOOT NOTE]
If you are happy with this download, it would be nice to hear your views or comments that you might have. Enjoy
=====================================================================================
Screen Shot Of Van Diemens Land (Island)
=====================================================================================
http://leetpic.com/images/vandiemens.jpg

=====================================================================================
http://torrent-stats.info/e6de/d0f4a618.png

=====================================================================================

Related torrents

Torrent NameAddedSizeSeedLeechHealth
Verified torrent
1 Year+ - in Movies1.68 GB42
Verified torrent
1 Year+ - in Movies1.63 GB03
Verified torrent
1 Year+ - in Movies2.14 GB28
Verified torrent
1 Year+ - in Movies869.42 MB55
Verified torrent
1 Year+ - in Movies2 GB02

Comments (0 Comments)




Please login or create a FREE account to post comments

Latest Searches

| big brother canada after dark s04e26 march 31 2016 | emerson lake palmer from the beginning | kaka love | Supernatural S12E08 HDTV x264 LOL ettv | c luva | Alina West fidelity | d r a m fuck da summer up | BrazzersExxtra Elicia Solis Romi Rain Comply With This Guy | Clarity Zedd ft Foxes | ESK 254 mkv |