Quick Browse
Movies
TV shows
Music
Games
Applications
Anime
Other
Facebook
Advertising

Friends
Torrent Download
Movie4u
1337x.to
Torrent Downloads




Various - The Glory Of Gershwin [EAC-FLAC] [RePoPo]


    Seeders : 5      Leechers : 3
Hash :96074FBC4675B46901449902D19C69E41D7770D2
Added :1 Year+ in Music - Music
Size :419.33 MB
Stream :WATCH ONLINE @ Movie4u


Various - The Glory Of Gershwin [EAC-FLAC] [RePoPo]
Free and Fast Download with Usenet 300GB+ free







Trackers List

Tracker NameLast CheckStatusSeedersLeechers




Torrent File Content (22 files)


Various - The Glory Of Gershwin [EAC-FLAC] [RePoPo]
     01.- Peter Gabriel - Summertime.flac -
19.96 MB

     02.- Chris de Burgh - Do What You Do.flac -
18.91 MB

     03.- Sting - Nice Work If You Can Get It.flac -
20.71 MB

     04.- Lisa Stansfield - They Can't Take That Away From Me.flac -
19.63 MB

     05.- Elton John - Someone To Watch Over Me (Love Is Here To Stay).flac -
35.05 MB

     06.- Carly Simon - I've Got A Crush On You.flac -
15.74 MB

     07.- Elvis Costello - But Not For Me.flac -
25.52 MB

     08.- Cher - It Ain't Necessarily So.flac -
23.12 MB

     09.- Kate Bush - The Man I Love.flac -
18.89 MB

     10.- Jon Bon Jovi - How Long Has This Been Going On.flac -
30.86 MB

     11.- Oleta Adams - Embraceable You.flac -
20.57 MB

     12.- Willard White - Bidin' My Time.flac -
17.7 MB

     13.- Sinead O'Connor - My Man's Gone Now.flac -
18.85 MB

     14.- Robert Palmer - I Got Rhythm.flac -
23.88 MB

     15.- Meat Loaf - Somebody Loves Me.flac -
21.69 MB

     16.- Issy van Randwyck - I'll Build A Stairway To Paradise.flac -
24.76 MB

     17.- Courtney Pine - Summertime.flac -
20.5 MB

     18.- Larry Adler & George Martin - Rhapsody In Blue.flac -
42.98 MB

     Torrent downloaded from Demonoid.com.txt -
47 bytes

     Various - The Glory Of Gershwin.log -
7.41 KB

     Various - The Glory Of Gershwin.m3u -
1.73 KB

     Various - The Glory Of Gershwin.txt -
5.24 KB



Description



*******************************************************************************
                        Various - The Glory Of Gershwin
*******************************************************************************

CD: Various - The Glory Of Gershwin

01. Peter Gabriel / Summertime    [0:03:50.15]
02. Chris de Burgh / Do What You Do    [0:03:35.70]
03. Sting / Nice Work If You Can Get It    [0:03:02.27]
04. Lisa Stansfield / They Can't Take That Away From Me    [0:03:16.65]
05. Elton John / Someone To Watch Over Me (Love Is Here To Stay)  [0:06:41.08]
06. Carly Simon / I've Got A Crush On You    [0:03:36.15]
07. Elvis Costello / But Not For Me    [0:05:04.32]
08. Cher / It Ain't Necessarily So    [0:04:12.15]
09. Kate Bush / The Man I Love    [0:03:19.70]
10. Jon Bon Jovi / How Long Has This Been Going On    [0:05:07.03]
11. Oleta Adams / Embraceable You    [0:03:54.40]
12. Willard White / Bidin' My Time    [0:03:31.20]
13. Sinead O'Connor / My Man's Gone Now    [0:03:37.72]
14. Robert Palmer / I Got Rhythm    [0:03:54.53]
15. Meat Loaf / Somebody Loves Me    [0:04:14.60]
16. Issy van Randwyck / I'll Build A Stairway To Paradise    [0:04:32.47]
17. Courtney Pine / Summertime    [0:04:00.50]
18. Larry Adler & George Martin / Rhapsody In Blue    [0:08:28.10]

-------------------------------------------------------------------------------

Review	by arwulf arwulf

Mouth organ virtuoso Larry Adler's last big project was a 1994 all-star tribute 
to composer and pianist George Gershwin. Produced in celebration of Adler's 80th 
birthday, this album sold over two million copies. The octogenarian is heard 
plying his harmonica alongside artists mainly associated with late 20th century 
pop music. Kate Bush sings "The Man I Love," Elvis Costello intones "But Not for 
Me," and Sinéad O'Connor breathes "My Man's Gone Now." Robert Palmer tosses off 
"I Got Rhythm," Meat Loaf claims that "Somebody Loves Me," Lisa Stansfield 
insists that "They Can't Take That Away from Me," and Elton John does up both 
"Someone to Watch Over Me" and "Love is Here to Stay." There is a lovely version 
of "Embraceable You" sung by Oleta Adams, "I've Got a Crush on You" was assigned 
to Carly Simon, "It Ain't Necessarily So" (the title of Adler's autobiography) 
is delivered by Cher, and Sting presents "Nice Work if You Can Get It." Peter 
Gabriel and saxophonist Courtney Pine each interpret "Summertime," and Adler is 
backed by an orchestra under the direction of George Martin for the grand 
finale, an eight-and-a-half-minute arrangement of the "Rhapsody in Blue." 

-------------------------------------------------------------------------------

Exact Audio Copy V0.99 prebeta 4 from 23. January 2008

EAC extraction logfile from 29. April 2009, 1:45

Various / The Glory Of Gershwin

Used drive  : HL-DT-STDVD-RAM GSA-H55N   Adapter: 3  ID: 1

Read mode               : Secure
Utilize accurate stream : Yes
Defeat audio cache      : No
Make use of C2 pointers : No

Read offset correction                      : 102
Overread into Lead-In and Lead-Out          : No
Fill up missing offset samples with silence : Yes
Delete leading and trailing silent blocks   : No
Null samples used in CRC calculations       : No
Used interface                              : Native Win32 interface for Win NT 
& 2000
Gap handling                                : Not detected, thus appended to 
previous track

Used output format              : User Defined Encoder
Selected bitrate                : 1024 kBit/s
Quality                         : High
Add ID3 tag                     : Yes
Command line compressor         : F:Archivos de programaExact Audio 
CopyFLACFLAC.EXE
Additional command line options : -6 -V -T "ARTIST=%a" -T "TITLE=%t" -T 
"ALBUM=%g" -T "DATE=%y" -T "TRACKNUMBER=%n" -T "GENRE=%m" -T
"COMMENT=%e" %s -o 
%d


TOC of the extracted CD

     Track |   Start  |  Length  | Start sector | End sector 
    ---------------------------------------------------------
        1  |  0:00.33 |  3:50.15 |        33    |    17297   
        2  |  3:50.48 |  3:35.70 |     17298    |    33492   
        3  |  7:26.43 |  3:02.27 |     33493    |    47169   
        4  | 10:28.70 |  3:16.65 |     47170    |    61934   
        5  | 13:45.60 |  6:41.08 |     61935    |    92017   
        6  | 20:26.68 |  3:36.15 |     92018    |   108232   
        7  | 24:03.08 |  5:04.32 |    108233    |   131064   
        8  | 29:07.40 |  4:12.15 |    131065    |   149979   
        9  | 33:19.55 |  3:19.70 |    149980    |   164974   
       10  | 36:39.50 |  5:07.03 |    164975    |   188002   
       11  | 41:46.53 |  3:54.40 |    188003    |   205592   
       12  | 45:41.18 |  3:31.20 |    205593    |   221437   
       13  | 49:12.38 |  3:37.72 |    221438    |   237784   
       14  | 52:50.35 |  3:54.53 |    237785    |   255387   
       15  | 56:45.13 |  4:14.60 |    255388    |   274497   
       16  | 60:59.73 |  4:32.47 |    274498    |   294944   
       17  | 65:32.45 |  4:00.50 |    294945    |   312994   
       18  | 69:33.20 |  8:28.10 |    312995    |   351104   

-------------------------------------------------------------------------------
-------------------------------------------------------------------------------

Related torrents

Torrent NameAddedSizeSeedLeechHealth
1 Year+ - in Music228.11 MB148
1 Year+ - in Music338.13 MB235
1 Comments
2 Good
1 Year+ - in Music628.35 MB5484
1 Year+ - in Music178.74 MB9820
1 Year+ - in Music728.61 MB31

Comments (0 Comments)




Please login or create a FREE account to post comments

Latest Searches

| felix cartal something to live for feat nikki yanofsky | brazzers teens like it big vol | 720p Gyrozetter | brazzers teens like it big vol 1 | make it rainremixR Kelly | the jungle book hindi episode 1 52 | Deep cover mp4 | We Bare Bears Season 01 | dorcel scarlet red | tT 476 |