Quick Browse
Movies
TV shows
Music
Games
Applications
Anime
Other
Facebook
Advertising

Friends
Torrent Download
Movie4u
1337x.to
Torrent Downloads




Verified torrent WWE - Monday Night Raw -4th OCT 2010 - Xvid-[thedesiadda.com]


    Seeders : 16      Leechers : 0
Hash :4BDA3EF1F4DE7E737D7B1DE450D39D22495C1B4B
Added :1 Year+ by Vamp111Verified torrent uploader in Other - Other
Size :771.44 MB
Stream :WATCH ONLINE @ Movie4u


WWE - Monday Night Raw -4th OCT 2010 - Xvid-[thedesiadda.com]
Free and Fast Download with Usenet 300GB+ free







Trackers List

Tracker NameLast CheckStatusSeedersLeechers




Torrent File Content (1 file)


     WWE - Monday Night Raw -4th OCT 2010 - Xvid-[thedesiadda.com].avi -
771.44 MB



Description



http://i1022.photobucket.com/albums/af345/bhoottt/1_1000-2.jpg


http://i1022.photobucket.com/albums/af345/bhoottt/WWE-MondayNightRaw-4thOCT2010-Xvid-thedesiaddacom_20101005-11232781.jpg

http://i1022.photobucket.com/albums/af345/bhoottt/WWE-MondayNightRaw-4thOCT2010-Xvid-thedesiaddacom_20101005-11232332.jpg

http://i1022.photobucket.com/albums/af345/bhoottt/WWE-MondayNightRaw-4thOCT2010-Xvid-thedesiaddacom_20101005-11251285.jpg

http://i1022.photobucket.com/albums/af345/bhoottt/WWE-MondayNightRaw-4thOCT2010-Xvid-thedesiaddacom_20101005-11244692.jpg

http://i1022.photobucket.com/albums/af345/bhoottt/WWE-MondayNightRaw-4thOCT2010-Xvid-thedesiaddacom_20101005-11240832.jpg

http://i1022.photobucket.com/albums/af345/bhoottt/WWE-MondayNightRaw-4thOCT2010-Xvid-thedesiaddacom_20101005-11254146.jpg




Video
ID : 0
Format : MPEG-4 Visual
Format profile : Advanced [email protected]
Format settings, BVOP : Yes
Format settings, QPel : No
Format settings, GMC : No warppoints
Format settings, Matrix : Default (H.263)
Codec ID : XVID
Codec ID/Hint : XviD
Duration : 1h 32mn
Bit rate : 1 022 Kbps
Width : 640 pixels
Height : 368 pixels
Display aspect ratio : 16:9
Frame rate : 25.000 fps
Resolution : 8 bits
Colorimetry : 4:2:0
Scan type : Progressive
Bits/(Pixel*Frame) : 0.174
Stream size : 678 MiB (88%)
Writing library : XviD 1.1.2 (UTC 2006-11-01)

Audio
ID : 1
Format : MPEG Audio
Format version : Version 1
Format profile : Layer 3
Mode : Joint stereo
Format_Settings_ModeExtension : MS Stereo
Codec ID : 55
Codec ID/Hint : MP3
Duration : 1h 32mn
Bit rate mode : Constant
Bit rate : 128 Kbps
Channel(s) : 2 channels
Sampling rate : 44.1 KHz
Stream size : 84.9 MiB (11%)

Related torrents

Torrent NameAddedSizeSeedLeechHealth
Verified torrent
1 Year+ - in Other500.48 MB93
Verified torrent
1 Year+ - in Other559.53 MB142
Verified torrent
1 Year+ - in Other510.04 MB31
1 Year+ - in TV shows764.1 MB5852
1 Year+ - in TV shows1.22 GB00

Comments (0 Comments)




Please login or create a FREE account to post comments

Latest Searches

| Cert Prep Revit Architecture Certified Professional | Izzy Bell a A Captive Audience | NCAAF FLORIDA STATE | Gapa | fantasy xxx pack | clash of clans hack 19 | xxx massage pack | the closer i get you | I C P fuck police | ja rule love is pain |