Quick Browse
Movies
TV shows
Music
Games
Applications
Anime
Other
Facebook
Advertising

Friends
Torrent Download
Movie4u
1337x.to
Torrent Downloads




Verified torrent WWE Friday Night Smackdown - 17th Sept 2010 - XviD-


    Seeders : 22      Leechers : 2
Hash :D620EE3ABB4EE1482597A07C45E0D0AC0B69F09B
Added :1 Year+ by Vamp111Verified torrent uploader in Other - Other
Size :746.26 MB
Stream :WATCH ONLINE @ Movie4u


WWE Friday Night Smackdown - 17th Sept 2010 - XviD-
Free and Fast Download with Usenet 300GB+ free







Trackers List

Tracker NameLast CheckStatusSeedersLeechers




Torrent File Content (1 file)


     WWE Friday Night Smackdown - 17th Sept 2010 - Xvid.avi -
746.26 MB



Description




http://i1022.photobucket.com/albums/af345/bhoottt/WWEFridayNightSmackdown-17thSept2010-Xvid_20100917-17255140.jpg

http://i1022.photobucket.com/albums/af345/bhoottt/WWEFridayNightSmackdown-17thSept2010-Xvid_20100917-17243631.jpg

http://i1022.photobucket.com/albums/af345/bhoottt/WWEFridayNightSmackdown-17thSept2010-Xvid_20100917-17204404.jpg

http://i1022.photobucket.com/albums/af345/bhoottt/WWEFridayNightSmackdown-17thSept2010-Xvid_20100917-17263907.jpg

http://i1022.photobucket.com/albums/af345/bhoottt/WWEFridayNightSmackdown-17thSept2010-Xvid_20100917-17215582.jpg


Video
ID : 0
Format : MPEG-4 Visual
Format profile : Advanced [email protected]
Format settings, BVOP : Yes
Format settings, QPel : No
Format settings, GMC : No warppoints
Format settings, Matrix : Default (H.263)
Codec ID : XVID
Codec ID/Hint : XviD
Duration : 1h 22mn
Bit rate : 1 140 Kbps
Width : 624 pixels
Height : 352 pixels
Display aspect ratio : 16:9
Frame rate : 25.000 fps
Resolution : 8 bits
Colorimetry : 4:2:0
Scan type : Progressive
Bits/(Pixel*Frame) : 0.208
Stream size : 674 MiB (90%)
Writing library : XviD 1.2.1 (UTC 2008-12-04)

Audio
ID : 1
Format : MPEG Audio
Format version : Version 1
Format profile : Layer 3
Mode : Joint stereo
Format_Settings_ModeExtension : MS Stereo
Codec ID : 55
Codec ID/Hint : MP3
Duration : 1h 22mn
Bit rate mode : Variable
Bit rate : 109 Kbps
Nominal bit rate : 128 Kbps
Channel(s) : 2 channels
Sampling rate : 48.0 KHz
Stream size : 64.6 MiB (9%)
Alignment : Aligned on interleaves
Interleave, duration : 24 ms (0.60 video frame)
Interleave, preload duration : 498 ms
Writing library : LAME3.90.
Encoding settings : -m j -V 4 -q 2 -lowpass 17.6 --abr 128

Related torrents

Torrent NameAddedSizeSeedLeechHealth
Verified torrent
1 Year+ - in Other745.48 MB486217
1 Year+ - in TV shows300.07 MB11
1 Year+ - in TV shows843.18 MB10
1 Year+ - in TV shows698.84 MB11104
1 Good
1 Year+ - in TV shows847.88 MB10

Comments (1 comment)




XtremeTorrents
+1

Added 1 Year+
Verified! :D
Please login or create a FREE account to post comments

Latest Searches

| Sure Hope It Fits AJ Applegate Karlo Karrera | Amara Romanitommy Gunn you wet yourself | adobe photoshop lightroom 6 8 mac | kristina miss | Grand Theft Auto IV 1 0 8 0 | LeAnn Rimes christmas one | jmac molly mae | Grand Theft Auto 1 0 8 0 | s m metallica 1999 | Tina Kay Hot fuck for the sake |