Quick Browse
Movies
TV shows
Music
Games
Applications
Anime
Other
Facebook
Advertising

Friends
Torrent Download
Movie4u
1337x.to
Torrent Downloads




Verified torrent WWE Friday Night Smackdown - 24th Sept 2010 - Xvid - Pdtv


    Seeders : 486      Leechers : 217
Hash :9232190BF4990D3E657A9B0519531224F7653DFF
Added :1 Year+ by Vamp111Verified torrent uploader in Other - Other
Size :745.48 MB
Stream :WATCH ONLINE @ Movie4u


WWE Friday Night Smackdown - 24th Sept 2010 - Xvid - Pdtv
Free and Fast Download with Usenet 300GB+ free







Trackers List

Tracker NameLast CheckStatusSeedersLeechers




Torrent File Content (2 files)


WWE Friday Night Smackdown - 24th Sept 2010 - Xvid - Pdtv
     WWE Friday Night Smackdown - 24th Sept 2010 - Xvid - Pdtv.avi -
745.48 MB

     New Text Document.txt -
61 bytes



Description



http://i1022.photobucket.com/albums/af345/bhoottt/WWE.jpg


http://i1022.photobucket.com/albums/af345/bhoottt/WWEFridayNightSmackdown-24thSept2010-Xvid-PdtvVAMPIREROCKs_20100924-17143134.jpg

http://i1022.photobucket.com/albums/af345/bhoottt/WWEFridayNightSmackdown-24thSept2010-Xvid-PdtvVAMPIREROCKs_20100924-17140092.jpg

http://i1022.photobucket.com/albums/af345/bhoottt/WWEFridayNightSmackdown-24thSept2010-Xvid-PdtvVAMPIREROCKs_20100924-17130389.jpg

http://i1022.photobucket.com/albums/af345/bhoottt/WWEFridayNightSmackdown-24thSept2010-Xvid-PdtvVAMPIREROCKs_20100924-17103656.jpg

http://i1022.photobucket.com/albums/af345/bhoottt/WWEFridayNightSmackdown-24thSept2010-Xvid-PdtvVAMPIREROCKs_20100924-17105242.jpg

http://i1022.photobucket.com/albums/af345/bhoottt/WWEFridayNightSmackdown-24thSept2010-Xvid-PdtvVAMPIREROCKs_20100924-17143848.jpg




Video
ID : 0
Format : MPEG-4 Visual
Format profile : Advanced [email protected]
Format settings, BVOP : Yes
Format settings, QPel : No
Format settings, GMC : No warppoints
Format settings, Matrix : Default (H.263)
Codec ID : XVID
Codec ID/Hint : XviD
Duration : 1h 21mn
Bit rate : 1 135 Kbps
Width : 624 pixels
Height : 352 pixels
Display aspect ratio : 16:9
Frame rate : 25.000 fps
Resolution : 8 bits
Colorimetry : 4:2:0
Scan type : Progressive
Bits/(Pixel*Frame) : 0.207
Stream size : 665 MiB (89%)
Writing library : XviD 1.2.1 (UTC 2008-12-04)

Audio
ID : 1
Format : MPEG Audio
Format version : Version 1
Format profile : Layer 3
Mode : Joint stereo
Format_Settings_ModeExtension : MS Stereo
Codec ID : 55
Codec ID/Hint : MP3
Duration : 1h 21mn
Bit rate mode : Variable
Bit rate : 125 Kbps
Nominal bit rate : 150 Kbps
Channel(s) : 2 channels
Sampling rate : 48.0 KHz
Stream size : 73.1 MiB (10%)
Alignment : Aligned on interleaves
Interleave, duration : 24 ms (0.60 video frame)

Related torrents

Torrent NameAddedSizeSeedLeechHealth
1 Comments
Verified torrent
1 Year+ - in Other746.26 MB222
1 Year+ - in TV shows805.57 MB00
1 Year+ - in TV shows805.57 MB00
1 Good
1 Year+ - in TV shows854.31 MB00
1 Year+ - in TV shows912.39 MB919

Comments (0 Comments)




Please login or create a FREE account to post comments

Latest Searches

| 6 day on the road | DVDRip Passengers 2016 | a guy with with a girl | Garmin TOPO U S 100K v 5 | Foxit J | preactivated office microsoft | au pair girls 1972 720p bluray x264 ctrlhd publichd | mm fonts | DVDRip Dr Strange | a 8g |