Quick Browse
Movies
TV shows
Music
Games
Applications
Anime
Other
Facebook
Advertising

Friends
Torrent Download
Movie4u
1337x.to
Torrent Downloads




Verified torrent WWE Friday Night Smackdown 01.10.2010~Striker~TDA


    Seeders : 0      Leechers : 0
Hash :8226A3256C750944D3A5E7FED710A8968910724C
Added :1 Year+ by striker123Verified torrent uploader in TV shows
Size :741.73 MB
Stream :WATCH ONLINE @ Movie4u


WWE Friday Night Smackdown 01.10.2010~Striker~TDA
Free and Fast Download with Usenet 300GB+ free







Trackers List

Tracker NameLast CheckStatusSeedersLeechers




Torrent File Content (4 files)


WWE Friday Night Smackdown 01.10.2010 HDTV
     WWE Friday Night Smackdown 01.10.2010 HDTV.mkv -
741.06 MB

     TeamTDA.jpg -
681.47 KB

     More Movies.url -
112 bytes

     Tracked By DesiAdda.com.txt -
23 bytes



Description



http://www.multichannel.com/photo/251/251687-Friday_Night_Smackdown.jpg


http://i51.tinypic.com/n13txv.png

[CODE]
General

Format : Matroska
File size : 741 MiB
Duration : 1h 20mn
Overall bit rate : 1 284 Kbps
Movie name : Avidemux
Writing application : Lavf52.61.0
Writing library : Lavf52.61.0

Video
ID : 1
Format : MPEG-4 Visual
Format profile : [email protected]
Format settings, BVOP : Yes
Format settings, QPel : No
Format settings, GMC : No warppoints
Format settings, Matrix : Default (H.263)
Codec ID : V_MPEG4/ISO/ASP
Codec ID/Info : Advanced Simple Profile
Duration : 1h 20mn
Bit rate : 1 136 Kbps
Width : 624 pixels
Height : 352 pixels
Display aspect ratio : 16:9
Frame rate : 25.000 fps
Resolution : 24 bits
Colorimetry : 4:2:0
Scan type : Progressive
Bits/(Pixel*Frame) : 0.207
Stream size : 656 MiB (88%)
Writing library : XviD 1.2.1 (UTC 2008-12-04)

Audio
ID : 2
Format : MPEG Audio
Format version : Version 1
Format profile : Layer 3
Codec ID : A_MPEG/L3
Codec ID/Hint : MP3
Duration : 1h 20mn
Bit rate mode : Variable
Bit rate : 122 Kbps
Nominal bit rate : 128 Kbps
Channel(s) : 2 channels
Sampling rate : 48.0 KHz
Resolution : 16 bits
Video delay : -40ms
Stream size : 70.6 MiB (10%)
Writing library : LAME3.98b
Encoding settings : -m j -V 4 -q 3 -lowpass 17 --abr 128-m j -V 4 -q 3 -lowpass 17 --abr 128


[/CODE]


http://i51.tinypic.com/2cgga6v.png


http://i53.tinypic.com/15sagt2.jpg


http://i55.tinypic.com/2dah9bk.png

Related torrents

Torrent NameAddedSizeSeedLeechHealth
Verified torrent
1 Year+ - in TV shows895.55 MB141
1 Year+ - in TV shows761.48 MB125
1 Year+ - in TV shows981.24 MB11
1 Year+ - in TV shows284.02 MB37
1 Year+ - in TV shows836.04 MB00

Comments (0 Comments)




Please login or create a FREE account to post comments

Latest Searches

| tech 9 d boy | hawaii five 0 2010 s07e06 ettv | PornStarsLikeItBig Eva Notty Jada Stevens Nikki Benz Romi Rain Halftime Show NEW | bankroll mafia bankroll on | hawaii five 0 2010 s07e07 ettv | shontelle impossible | win 7 ultimate iso | PHOTO MAGAZINE PDF | becky gplay it again | PHOTO MAGAZINE PDF |