Quick Browse
Movies
TV shows
Music
Games
Applications
Anime
Other
Facebook
Advertising

Friends
Torrent Download
Movie4u
1337x.to
Torrent Downloads




Wafaa~1CD~DVDRIP~Striker~TheDesiAdda.Com


    Seeders : 1      Leechers : 0
Hash :6B271483A65985D7C993F02C78FCECE9E1B5B468
Added :1 Year+ by striker123Verified torrent uploader in Movies
Size :691.74 MB
Stream :WATCH ONLINE @ Movie4u


Wafaa~1CD~DVDRIP~Striker~TheDesiAdda.Com
Free and Fast Download with Usenet 300GB+ free







Trackers List

Tracker NameLast CheckStatusSeedersLeechers




Torrent File Content (5 files)


Wafaa~1CD~DVDRIP~Striker~TheDesiAdda.Com
     More Movies.url -
112 bytes

     TeamTDA.jpg -
681.47 KB

     Thumbs.db -
8 KB

     Tracked By DesiAdda.com.txt -
23 bytes

     Wafaa~1CD~DVDRIP~Striker~TheDesiAdda.Com.avi -
691.06 MB



Description



http://i53.tinypic.com/6odcw3.jpg


http://www.image.videorockers.in/hosted/90fd1472acca77fa1ca3fd9bf9c23760.jpg


http://i51.tinypic.com/n13txv.png


[CODE]
General

Format : AVI
Format/Info : Audio Video Interleave
Format profile : OpenDML
File size : 691 MiB
Duration : 1h 58mn
Overall bit rate : 813 Kbps
Writing application : AVI-Mux GUI 1.17.7, Aug 8 2006 20:59:17

Video
ID : 0
Format : MPEG-4 Visual
Format profile : [email protected]
Format settings, BVOP : Yes
Format settings, QPel : No
Format settings, GMC : No warppoints
Format settings, Matrix : Default (H.263)
Codec ID : XVID
Codec ID/Hint : XviD
Duration : 1h 58mn
Bit rate : 713 Kbps
Width : 720 pixels
Height : 288 pixels
Display aspect ratio : 2.500
Frame rate : 25.000 fps
Resolution : 24 bits
Colorimetry : 4:2:0
Scan type : Progressive
Bits/(Pixel*Frame) : 0.138
Stream size : 606 MiB (88%)
Writing library : XviD 1.2.1 (UTC 2008-12-04)

Audio
ID : 1
Format : MPEG Audio
Format version : Version 1
Format profile : Layer 3
Codec ID : 55
Codec ID/Hint : MP3
Duration : 1h 58mn
Bit rate mode : Constant
Bit rate : 96.0 Kbps
Channel(s) : 2 channels
Sampling rate : 32.0 KHz
Resolution : 16 bits
Stream size : 81.6 MiB (12%)
Alignment : Aligned on interleaves
Interleave, duration : 946 ms (23.65 video frames)
Interleave, preload duration : 216 ms
Title : VTS_01_1 T80 2_0ch 192Kbps DELAY 0ms
Writing library : LAME3.98r
Encoding settings : -m j -V 4 -q 2 -lowpass 15.1 -b 96


[/CODE]

http://i51.tinypic.com/2cgga6v.png


http://i56.tinypic.com/33nxn6d.jpg



http://i55.tinypic.com/2dah9bk.png

Related torrents

Torrent NameAddedSizeSeedLeechHealth
1 Year+ - in Movies692.98 MB10
1 Year+ - in Movies2.74 GB01
1 Year+ - in Movies700.7 MB00
1 Year+ - in Movies4.33 GB20
1 Year+ - in TV shows372.58 MB01

Comments (0 Comments)




Please login or create a FREE account to post comments

Latest Searches

| Tushy Jillian Janson Anya Olsen HEVC | mirror star | MOVIE Game Of Thrones | deftones u u d d | 30 string | I need up | moana mp4 | B B KING Paying The Cost | bitch lover | jimmy fallon robert de niro 2016 |